<?xml version="1.0" standalone="no"?>
<!DOCTYPE svg PUBLIC "-//W3C//DTD SVG 1.1//EN" "http://www.w3.org/Graphics/SVG/1.1/DTD/svg11.dtd" >
<svg xmlns="http://www.w3.org/2000/svg" xmlns:xlink="http://www.w3.org/1999/xlink" version="1.1">
<metadata>
Created by FontForge 20170731 at Wed Aug  9 22:55:54 2023
 By Aleksey,,,
(c) Copyright 2006, 2007 Berthold LLC. All Rights Reserved. This font software computer program is the property of Berthold. You may not reproduce, modify, adapt, translate, alter nor create derivative works of the font software. You may not reverse engineer, decompile, decrypt, disassemble, nor seek to discover the source code of the font software.
</metadata>
<defs>
<font id="AkzidenzGroteskPro-BoldCnIt" horiz-adv-x="811" >
  <font-face 
    font-family="Akzidenz-Grotesk Pro Bold Cnd"
    font-weight="700"
    font-style="italic"
    font-stretch="condensed"
    units-per-em="2048"
    panose-1="2 0 5 6 8 0 0 9 0 4"
    ascent="1536"
    descent="-512"
    x-height="1040"
    cap-height="1446"
    bbox="-295 -510 2068 2036"
    underline-thickness="188"
    underline-position="-548"
    slope="-13"
    unicode-range="U+0020-FB02"
  />
<missing-glyph horiz-adv-x="1024" 
d="M0 0v1446h1024v-1446h-1024zM512 821l348 522h-696zM573 723l349 -528v1056zM164 102h696l-348 529zM102 1251v-1056l349 528z" />
    <glyph glyph-name="fi" unicode="fi" horiz-adv-x="919" 
d="M1063 1446l-57 -246h-246l57 246h246zM969 1040l-240 -1040h-246l240 1040h246zM715 1440l-45 -197q-30 6 -45 6q-46 0 -66.5 -29t-34.5 -92l-20 -88h108l-37 -163h-110l-201 -877h-241l200 877h-108l39 163h108l45 191q29 123 99.5 173t179.5 50q69 0 129 -14z" />
    <glyph glyph-name="fl" unicode="fl" horiz-adv-x="919" 
d="M1063 1446l-334 -1446h-246l334 1446h246zM715 1440l-45 -197q-30 6 -45 6q-46 0 -66.5 -29t-34.5 -92l-20 -88h108l-37 -163h-110l-201 -877h-241l200 877h-108l39 163h108l45 191q29 123 99.5 173t179.5 50q69 0 129 -14z" />
    <glyph glyph-name=".notdef" horiz-adv-x="1024" 
d="M0 0v1446h1024v-1446h-1024zM512 821l348 522h-696zM573 723l349 -528v1056zM164 102h696l-348 529zM102 1251v-1056l349 528z" />
    <glyph glyph-name=".null" horiz-adv-x="0" 
 />
    <glyph glyph-name="nonmarkingreturn" horiz-adv-x="682" 
 />
    <glyph glyph-name="space" unicode=" " horiz-adv-x="468" 
 />
    <glyph glyph-name="exclam" unicode="!" horiz-adv-x="468" 
d="M600 1446l-147 -641l-136 -416h-159l61 404l150 653h231zM336 270l-64 -270h-243l63 270h244z" />
    <glyph glyph-name="quotedbl" unicode="&#x22;" horiz-adv-x="626" 
d="M834 1516l-224 -590h-51l53 590h222zM502 1516l-223 -590h-52l56 590h219z" />
    <glyph glyph-name="numbersign" unicode="#" horiz-adv-x="1193" 
d="M1266 1012l-43 -174h-248l-66 -203h240l-43 -174h-250l-147 -461h-189l146 461h-168l-146 -461h-192l147 461h-241l43 174h253l68 203h-248l41 174h260l140 434h188l-137 -434h168l137 434h186l-135 -434h236zM784 838h-168l-63 -203h168z" />
    <glyph glyph-name="dollar" unicode="$" horiz-adv-x="854" 
d="M883 985h-230l33 135q8 31 8 64q0 73 -90 73q-69 0 -109 -61.5t-40 -132.5q0 -54 34 -100l199 -269q88 -119 88 -250q0 -77 -20.5 -153.5t-61 -145.5t-112 -112t-162.5 -43h-35l-43 -193h-104l43 193q-114 12 -175 73t-61 162q0 40 21 140l26 116h227l-32 -135
q-13 -51 -13 -76q0 -40 28.5 -63t76.5 -23q65 0 104 45q19 21 38.5 87.5t19.5 105.5q0 72 -58 147l-151 201q-71 95 -91 145t-20 121q0 45 11 95.5t38 106.5t67.5 100t106 73t146.5 29h26l37 166h105l-37 -166q104 -13 154.5 -68t50.5 -155q0 -43 -15 -109z" />
    <glyph glyph-name="percent" unicode="%" horiz-adv-x="1449" 
d="M1452 639l-94 -408q-31 -137 -93.5 -189t-174.5 -52q-114 0 -172 44.5t-58 129.5q0 40 14 106l97 414q13 56 28.5 92.5t44 72.5t77 53.5t116.5 17.5q107 0 168 -43t61 -119q0 -62 -14 -119zM1282 1419l-866 -1511l-121 45l868 1513zM700 1094l-94 -408
q-31 -137 -93.5 -189.5t-174.5 -52.5t-170.5 44.5t-58.5 129.5q0 38 16 107l96 420q26 116 85.5 172.5t178.5 56.5q108 0 169 -43t61 -119q0 -56 -15 -118zM1190 221l104 457q9 34 9 55q0 60 -74 60q-41 0 -61 -21.5t-33 -81.5l-103 -459q-8 -46 -8 -53q0 -61 74 -61
q40 0 59 22t33 82zM440 676l103 459q8 40 8 53q0 59 -74 59q-40 0 -59.5 -21t-32.5 -81l-104 -459q-9 -45 -9 -53q0 -60 74 -60q41 0 61 21.5t33 81.5z" />
    <glyph glyph-name="ampersand" unicode="&#x26;" horiz-adv-x="1067" 
d="M846 655h211q-64 -267 -223 -434q20 -26 48 -36.5t79 -10.5h14l-41 -174q-66 -12 -111 -12q-63 0 -95.5 12t-80.5 57q-148 -80 -295 -80q-151 0 -242.5 95t-91.5 252q0 72 21 133.5t67 120t102 109.5t142 116l35 26q-35 144 -35 250q0 184 89 287.5t247 103.5
q124 0 195 -63.5t71 -175.5q0 -82 -57 -174q-13 -21 -25 -38t-22.5 -29.5t-32.5 -34t-37.5 -36t-57 -52.5t-73.5 -68q60 -243 107 -375q24 40 34 60t25 62t33 109zM598 1016q139 130 139 207q0 28 -16.5 44.5t-44.5 16.5q-42 0 -67 -42.5t-25 -115.5q0 -36 14 -110zM567 240
q-54 146 -118 385q-104 -96 -142.5 -154t-38.5 -129t40.5 -110t113.5 -39q77 0 145 47z" />
    <glyph glyph-name="quotesingle" unicode="'" horiz-adv-x="294" 
d="M502 1516l-223 -590h-52l56 590h219z" />
    <glyph glyph-name="parenleft" unicode="(" horiz-adv-x="598" 
d="M825 1587l-43 -190l-28 -13q-117 -50 -170.5 -123.5t-94.5 -246.5l-182 -789q-14 -62 -14 -135q0 -36 5 -63t33.5 -84t84.5 -133l-41 -181q-177 122 -251.5 233.5t-74.5 227.5q0 71 27 191l186 798q28 118 69 197.5t111 138t157.5 96.5t225.5 76z" />
    <glyph glyph-name="parenright" unicode=")" horiz-adv-x="598" 
d="M260 1407l43 180q167 -120 245.5 -231.5t78.5 -229.5q0 -73 -27 -190l-184 -801q-18 -79 -49 -144.5t-62 -111t-81.5 -85t-84.5 -61t-96 -45t-90.5 -32t-92.5 -25.5q-5 -1 -7 -2l43 191q126 44 188 125.5t102 255.5l183 788q16 65 16 123q0 144 -125 295z" />
    <glyph glyph-name="asterisk" unicode="*" horiz-adv-x="774" 
d="M889 1065l-211 -21l78 -186l-160 -72l-86 197l-158 -137l-112 137l151 131l-176 105l88 151l182 -104l52 204l172 -43l-52 -206l215 18z" />
    <glyph glyph-name="plus" unicode="+" horiz-adv-x="1142" 
d="M1040 713l-49 -207h-282l-74 -322h-236l74 322h-289l47 207h289l74 321h235l-73 -321h284z" />
    <glyph glyph-name="comma" unicode="," horiz-adv-x="382" 
d="M272 264l-61 -264l-234 -276h-90l203 276h-119l62 264h239z" />
    <glyph glyph-name="hyphen" unicode="-" horiz-adv-x="643" 
d="M633 698l-47 -202h-510l47 202h510z" />
    <glyph glyph-name="period" unicode="." horiz-adv-x="382" 
d="M272 264l-61 -264h-240l62 264h239z" />
    <glyph glyph-name="slash" unicode="/" horiz-adv-x="512" 
d="M723 1446l-598 -1446h-203l600 1446h201z" />
    <glyph glyph-name="zero" unicode="0" 
d="M881 987l-144 -618q-51 -220 -138.5 -304.5t-260.5 -84.5q-148 0 -230.5 62.5t-82.5 172.5q0 52 18 137l164 707q73 319 385 319q147 0 227 -65t80 -185q0 -64 -18 -141zM487 303l168 725q15 66 15 80q0 43 -26 66.5t-75 23.5q-54 0 -79.5 -30t-45.5 -115l-168 -721
q-14 -59 -14 -94t25.5 -56.5t68.5 -21.5q57 0 85 32t46 111z" />
    <glyph glyph-name="one" unicode="1" 
d="M772 1362l-315 -1362h-240l240 1038l-21 -12q-78 -46 -203 -65l48 188q105 27 171 68.5t160 144.5h160z" />
    <glyph glyph-name="two" unicode="2" 
d="M707 205l-48 -205h-716q45 199 111.5 319t201.5 234q60 51 126 102.5t99 77t66 56.5t49.5 61.5t26.5 73.5l28 120q11 42 11 68q0 38 -26.5 61t-70.5 23q-51 0 -80.5 -30t-44.5 -99l-37 -162h-223l39 166q38 164 123.5 237.5t237.5 73.5q149 0 234 -64t85 -177
q0 -51 -10 -90l-35 -146q-18 -75 -46.5 -127t-82.5 -102q-58 -55 -287 -240q-90 -71 -123.5 -114t-60.5 -117h453z" />
    <glyph glyph-name="three" unicode="3" 
d="M178 954l31 131q26 105 49 148q74 135 284 146q19 1 40 1q149 0 227 -57.5t78 -167.5q0 -38 -13 -92l-20 -90q-14 -63 -30 -102t-44 -69.5t-70 -45.5t-106 -21q148 -35 148 -172q0 -60 -17 -133l-30 -139q-36 -168 -120 -238.5t-266 -70.5q-319 0 -319 225q0 37 16 106
l27 115h236l-25 -109q-10 -52 -10 -71q0 -84 96 -84q59 0 84.5 28.5t46.5 114.5l29 117q16 63 16 115q0 58 -33 83t-110 25h-49l36 160h41q89 0 140.5 32.5t74.5 131.5l23 96q6 27 6 51q0 80 -90 80q-51 0 -79 -29.5t-48 -109.5l-25 -105h-225z" />
    <glyph glyph-name="four" unicode="4" 
d="M889 1368l-211 -919h88l-43 -191h-90l-60 -258h-219l60 258h-408l43 191l557 919h283zM639 1149l-389 -700h209z" />
    <glyph glyph-name="five" unicode="5" 
d="M934 1362l-47 -205h-443l-69 -278q88 73 207 73q103 0 162 -52.5t59 -143.5q0 -53 -23 -150l-78 -327q-37 -160 -117.5 -228.5t-258.5 -68.5q-324 0 -324 215q0 40 10 92l31 135h236l-25 -102q-10 -45 -10 -74q0 -39 21 -59.5t73 -20.5q62 0 90 36.5t53 147.5l54 244
q16 76 16 90q0 40 -24.5 62t-67.5 22q-106 0 -154 -137h-188l182 729h635z" />
    <glyph glyph-name="six" unicode="6" 
d="M877 1004h-226l19 73q4 14 4 43q0 37 -25 58.5t-69 21.5q-28 0 -48.5 -7.5t-33.5 -18.5t-24 -34.5t-18 -46t-16 -61.5l-53 -233q89 86 209 86q97 0 153 -53.5t56 -145.5q0 -38 -27 -158l-47 -211q-22 -99 -55.5 -164.5t-82.5 -101.5t-105.5 -50.5t-133.5 -14.5
q-154 0 -238.5 63t-84.5 180q0 38 10 86l176 760q25 104 55 154q90 152 316 153q315 0 315 -225q0 -42 -10 -84zM496 309l51 232q10 41 10 63q0 38 -25 60t-69 22q-56 0 -87 -31t-48 -104l-52 -223q-10 -52 -10 -74q0 -41 25.5 -62.5t73.5 -21.5q55 0 84.5 31t46.5 108z" />
    <glyph glyph-name="seven" unicode="7" 
d="M995 1362l-47 -203q-75 -88 -174.5 -237.5t-175.5 -290.5q-86 -159 -162 -355q-40 -102 -84 -276h-256q64 243 210.5 523.5t332.5 518.5l92 119h-317l-37 -160h-199l82 361h735z" />
    <glyph glyph-name="eight" unicode="8" 
d="M879 1065l-25 -115q-22 -103 -65.5 -155t-129.5 -80q60 -28 86.5 -64.5t26.5 -93.5q0 -36 -16 -108l-31 -136q-41 -181 -129 -256t-262 -75q-152 0 -231.5 58.5t-79.5 170.5q0 40 16 115l37 170q25 117 70.5 165.5t140.5 71.5q-97 51 -97 152q0 39 9 80l34 147
q32 137 119.5 202.5t237.5 65.5q145 0 222 -58t77 -167q0 -38 -10 -90zM629 938l28 135q7 28 7 43q0 38 -23.5 59t-65.5 21q-53 0 -78.5 -24t-39.5 -85l-33 -141q-8 -33 -8 -55q0 -82 92 -82q51 0 78 25t43 104zM492 297l45 209q8 46 8 49q0 84 -101 84q-53 0 -83.5 -28.5
t-43.5 -92.5l-47 -211q-8 -40 -8 -57q0 -37 26 -57.5t70 -20.5q56 0 88.5 30t45.5 95z" />
    <glyph glyph-name="nine" unicode="9" 
d="M59 373h226l-17 -80q-6 -24 -6 -45q0 -37 25 -58.5t69 -21.5q26 0 44 5t37 21.5t34 51.5t27 90l51 242q-80 -86 -195 -86q-106 0 -162.5 51.5t-56.5 148.5q0 56 23 156l49 201q25 101 44 146.5t52 84.5q91 104 279 104q155 0 239 -64t84 -181q0 -39 -10 -84l-188 -811
q-59 -258 -361 -258q-313 0 -313 225q0 36 10 84zM608 825l51 215q11 53 11 74q0 84 -99 84q-54 0 -82 -30t-47 -107l-53 -225q-10 -42 -10 -64q0 -38 25 -60t69 -22q52 0 84 28t51 107z" />
    <glyph glyph-name="colon" unicode=":" horiz-adv-x="468" 
d="M541 1049l-62 -265h-237l59 265h240zM360 264l-61 -264h-240l62 264h239z" />
    <glyph glyph-name="semicolon" unicode=";" horiz-adv-x="468" 
d="M541 1049l-62 -265h-237l59 265h240zM360 264l-61 -264l-233 -276h-91l203 276h-119l62 264h239z" />
    <glyph glyph-name="less" unicode="&#x3c;" horiz-adv-x="1144" 
d="M1069 1171l-59 -256l-568 -264l455 -264l-55 -229l-647 395l51 219z" />
    <glyph glyph-name="equal" unicode="=" horiz-adv-x="1144" 
d="M1087 928l-45 -201h-798l47 201h796zM997 535l-45 -201h-798l45 201h798z" />
    <glyph glyph-name="greater" unicode="&#x3e;" horiz-adv-x="1144" 
d="M1059 772l-51 -219l-824 -397l60 254l567 264l-455 264l56 231z" />
    <glyph glyph-name="question" unicode="?" horiz-adv-x="854" 
d="M496 389h-232l15 66q23 101 47.5 151.5t89.5 118.5l159 166q71 74 95 131q13 34 30 109.5t17 101.5q0 34 -21.5 53t-60.5 19q-56 0 -80.5 -38.5t-46.5 -129.5l-43 -183h-227l34 152q11 49 20.5 81.5t26 74.5t35 69t48 56t65.5 45.5t86.5 27t112.5 10.5q141 0 218 -58.5
t77 -166.5q0 -107 -50 -235q-22 -59 -39.5 -85t-83.5 -98l-170 -186q-19 -20 -32 -35t-23 -31.5t-15.5 -24.5t-12 -25.5t-8.5 -24t-9 -31.5t-10 -35zM475 266l-61 -266h-238l62 266h237z" />
    <glyph glyph-name="at" unicode="@" horiz-adv-x="1697" 
d="M1137 1032h184l-84 -325q-76 -297 -76 -345q0 -51 39 -51q47 0 119 88q78 95 124 229.5t46 264.5q0 196 -116 306t-322 110q-151 0 -294.5 -70t-249 -185.5t-169.5 -272t-64 -322.5q0 -175 76 -301t205 -187t297 -61q177 0 350 76.5t328 222.5l86 -127q-90 -78 -140 -116
t-116 -77q-246 -141 -520 -141q-211 0 -377.5 80.5t-265.5 239.5t-99 372q0 167 48.5 323t137.5 281.5t207.5 220t266 146t305.5 51.5q267 0 431.5 -153t164.5 -402q0 -190 -74.5 -369t-195.5 -289t-250 -110q-74 0 -121.5 37t-56.5 103q-122 -140 -263 -140
q-123 0 -193.5 84.5t-70.5 233.5q0 156 66.5 299.5t175.5 230t229 86.5q68 0 116 -26t91 -97zM1034 717q0 73 -30 123.5t-99 50.5q-65 0 -127 -65t-98.5 -160t-36.5 -185q0 -75 32 -116t89 -41q61 0 124.5 59t104.5 151.5t41 182.5z" />
    <glyph glyph-name="A" unicode="A" horiz-adv-x="894" 
d="M510 1446h305l-39 -1446h-262l16 236h-245l-90 -236h-275zM365 459h184l45 620z" />
    <glyph glyph-name="B" unicode="B" horiz-adv-x="978" 
d="M334 1446h409q54 0 92.5 -3.5t81 -16t69 -35t44 -63t17.5 -97.5q0 -46 -13 -103l-20 -92q-29 -133 -76 -185.5t-152 -72.5q136 -30 136 -141q0 -58 -21 -154l-41 -184q-11 -47 -22 -80.5t-38.5 -78.5t-64.5 -72.5t-100.5 -47.5t-145.5 -20h-489zM553 1239l-84 -365h72
q105 0 145 26.5t57 107.5l19 86q10 45 10 65q0 43 -26.5 61.5t-86.5 18.5h-106zM420 666l-107 -457h95q39 0 60 1t45 6t35.5 13.5t24.5 25t21 40t16 59.5l39 170q8 40 8 64q0 43 -27.5 60.5t-94.5 17.5h-115z" />
    <glyph glyph-name="C" unicode="C" horiz-adv-x="937" 
d="M1004 920h-263l33 147q19 81 19 104q0 101 -111 101q-64 0 -100 -36.5t-56 -121.5l-176 -758q-12 -59 -12 -88q0 -44 28.5 -68t82.5 -24q69 0 103.5 38t57.5 140l43 189h262l-38 -174q-26 -120 -62 -196.5t-92 -122t-127 -63.5t-176 -18q-189 0 -271.5 66t-82.5 194
q0 51 22 152l166 713q50 209 156 296t313 87q167 0 254.5 -59t87.5 -173q0 -55 -21 -147z" />
    <glyph glyph-name="D" unicode="D" horiz-adv-x="980" 
d="M334 1446h403q162 0 241 -62.5t79 -191.5q0 -57 -31 -186l-154 -664q-28 -119 -74 -191t-130.5 -111.5t-214.5 -39.5h-453zM551 1235l-236 -1024h95q105 0 143.5 31.5t64.5 144.5l156 676q12 55 12 80q0 51 -32 71.5t-115 20.5h-88z" />
    <glyph glyph-name="E" unicode="E" horiz-adv-x="854" 
d="M1034 1446l-51 -219h-434l-78 -340h410l-52 -219h-409l-103 -445h455l-51 -223h-721l334 1446h700z" />
    <glyph glyph-name="F" unicode="F" 
d="M1042 1446l-51 -223h-440l-84 -363h414l-50 -215h-413l-150 -645h-268l334 1446h708z" />
    <glyph glyph-name="G" unicode="G" horiz-adv-x="999" 
d="M1008 979h-265l31 139q8 40 8 56q0 94 -114 94q-69 0 -103 -39.5t-59 -147.5l-166 -721q-14 -66 -14 -88q0 -44 29.5 -70t80.5 -26q65 0 102.5 38.5t57.5 127.5l51 225h-164l52 217h430l-183 -784h-227l20 86q-105 -117 -268 -117q-123 0 -190.5 61.5t-67.5 174.5
q0 69 21 160l168 722q51 216 154.5 303t309.5 87q177 0 269 -58t92 -168q0 -36 -19 -114z" />
    <glyph glyph-name="H" unicode="H" horiz-adv-x="980" 
d="M1110 1446l-334 -1446h-266l152 662h-244l-152 -662h-266l334 1446h266l-131 -567h244l131 567h266z" />
    <glyph glyph-name="I" unicode="I" horiz-adv-x="466" 
d="M598 1446l-334 -1446h-264l334 1446h264z" />
    <glyph glyph-name="J" unicode="J" 
d="M950 1446l-258 -1118q-47 -203 -137.5 -282t-269.5 -79q-154 0 -234 61.5t-80 178.5q0 55 19 135l26 117h248l-28 -123q-15 -69 -15 -88q0 -31 21 -49.5t59 -18.5q51 0 77 32t46 118l258 1116h268z" />
    <glyph glyph-name="K" unicode="K" horiz-adv-x="937" 
d="M1159 1446l-477 -645l160 -801h-281l-127 707l-164 -707h-270l334 1446h270l-131 -563l404 563h282z" />
    <glyph glyph-name="L" unicode="L" horiz-adv-x="768" 
d="M709 219l-52 -219h-657l334 1446h266l-283 -1227h392z" />
    <glyph glyph-name="M" unicode="M" horiz-adv-x="1409" 
d="M1538 1446l-334 -1446h-266l313 1253l-522 -1253h-248l49 1253l-268 -1253h-262l334 1446h434l-63 -1012l405 1012h428z" />
    <glyph glyph-name="N" unicode="N" horiz-adv-x="1024" 
d="M1153 1446l-334 -1446h-336l-6 1083l-227 -1083h-250l334 1446h342l14 -1061l219 1061h244z" />
    <glyph glyph-name="O" unicode="O" horiz-adv-x="980" 
d="M1030 1057l-162 -705q-16 -71 -35 -122.5t-53 -103.5t-79 -84.5t-115 -52.5t-160 -20q-367 0 -367 283q0 61 25 172l154 659q34 146 84.5 230t136.5 125t221 41q178 0 274.5 -73t96.5 -208q0 -45 -21 -141zM604 369l164 704q14 59 14 101q0 49 -30 75.5t-84 26.5
q-69 0 -102 -36.5t-60 -154.5l-160 -692q-20 -90 -20 -114q0 -101 120 -101q33 0 57.5 10t39 23t27 42.5t18.5 50.5t16 65z" />
    <glyph glyph-name="P" unicode="P" horiz-adv-x="935" 
d="M334 1446h465q113 0 181.5 -55.5t68.5 -163.5q0 -48 -17 -131l-47 -207q-36 -159 -110.5 -223t-241.5 -64h-225l-140 -602h-268zM553 1233l-98 -424h129q77 0 104.5 23.5t46.5 105.5l33 147q10 48 10 68q0 43 -24.5 61.5t-83.5 18.5h-117z" />
    <glyph glyph-name="Q" unicode="Q" horiz-adv-x="980" 
d="M934 -45l-176 -148l-154 189q-53 -17 -84.5 -22t-91.5 -5q-183 0 -276 71.5t-93 211.5q0 61 25 172l168 717q43 182 148 260t280 78q177 0 274 -73.5t97 -207.5q0 -48 -21 -141l-151 -662q-39 -174 -91 -262zM598 344l170 729q14 59 14 101q0 49 -30 75.5t-84 26.5
q-65 0 -100.5 -37.5t-61.5 -153.5l-160 -692q-20 -90 -20 -114q0 -101 120 -101q66 0 98 35.5t54 130.5z" />
    <glyph glyph-name="R" unicode="R" horiz-adv-x="980" 
d="M334 1446h457q272 0 272 -229q0 -50 -10 -91l-33 -141q-28 -120 -81 -173.5t-163 -72.5q78 -22 112 -61t34 -109q0 -50 -17 -125l-57 -251q-14 -96 -14 -105q0 -34 6 -52t24 -36h-293q-14 46 -14 76q0 36 12 88l64 268q20 82 20 115q0 47 -30 68.5t-99 21.5h-110
l-148 -637h-266zM461 844h106q102 0 135.5 29t59.5 141l24 106q7 24 7 41q0 41 -27 59.5t-90 18.5h-123z" />
    <glyph glyph-name="S" unicode="S" horiz-adv-x="917" 
d="M967 1022h-267l23 100q8 33 8 66q0 86 -102 86q-44 0 -76.5 -26t-47.5 -65t-21.5 -70.5t-6.5 -55.5q0 -76 49 -117l168 -141q98 -83 128 -141t30 -148q0 -114 -59 -283q-46 -132 -144.5 -195t-259.5 -63q-178 0 -274.5 69t-96.5 195q0 53 23 150l31 127h264l-29 -117
q-20 -84 -20 -129q0 -41 32.5 -65.5t86.5 -24.5q80 0 108 51q29 50 46.5 125.5t17.5 116.5q0 85 -84 151l-144 115q-72 59 -106.5 118.5t-34.5 143.5q0 192 102 334q104 148 338 148q175 0 266 -60.5t91 -177.5q0 -37 -13 -94z" />
    <glyph glyph-name="T" unicode="T" 
d="M1036 1446l-47 -209h-268l-287 -1237h-268l287 1237h-267l47 209h803z" />
    <glyph glyph-name="U" unicode="U" horiz-adv-x="974" 
d="M1106 1446l-258 -1120q-43 -186 -148.5 -271.5t-293.5 -85.5q-169 0 -258 71t-89 206q0 44 27 166l238 1034h266l-242 -1049q-18 -86 -18 -104q0 -46 29 -71t83 -25q60 0 92.5 38.5t55.5 137.5l248 1073h268z" />
    <glyph glyph-name="V" unicode="V" horiz-adv-x="854" 
d="M1061 1446l-606 -1446h-269l47 1446h275l-80 -957l352 957h281z" />
    <glyph glyph-name="W" unicode="W" horiz-adv-x="1449" 
d="M1655 1446l-613 -1446h-280l88 991l-383 -991h-285l70 1446h268l-104 -1090l405 1090h252l-100 -1090l403 1090h279z" />
    <glyph glyph-name="X" unicode="X" horiz-adv-x="980" 
d="M1153 1446l-442 -684l151 -762h-280l-68 489l-274 -489h-306l492 778l-137 668h282l60 -395l219 395h303z" />
    <glyph glyph-name="Y" unicode="Y" horiz-adv-x="854" 
d="M1081 1446l-522 -1018l-100 -428h-273l105 446l-60 1000h273l-12 -729l303 729h286z" />
    <glyph glyph-name="Z" unicode="Z" horiz-adv-x="854" 
d="M1016 1446l-33 -143l-682 -1078h444l-51 -225h-755l38 168l662 1055h-379l53 223h703z" />
    <glyph glyph-name="bracketleft" unicode="[" horiz-adv-x="681" 
d="M915 1559l-41 -183h-249l-357 -1540h252l-43 -184h-493l440 1907h491z" />
    <glyph glyph-name="backslash" unicode="\" horiz-adv-x="638" 
d="M537 0h-187l-121 1446h187z" />
    <glyph glyph-name="bracketright" unicode="]" horiz-adv-x="681" 
d="M774 1561l-440 -1905h-492l43 182h250l354 1538h-251l43 185h493z" />
    <glyph glyph-name="asciicircum" unicode="^" horiz-adv-x="1144" 
d="M1090 733h-238l-86 496l-311 -494h-262l499 713h223z" />
    <glyph glyph-name="underscore" unicode="_" horiz-adv-x="1024" 
d="M838 -453h-1065l43 189h1065z" />
    <glyph glyph-name="grave" unicode="`" horiz-adv-x="425" 
d="M438 1176h-176l-274 270h313z" />
    <glyph glyph-name="a" unicode="a" 
d="M657 0h-256q-12 17 -12 45q0 22 4 47q-84 -115 -209 -115q-86 0 -132 49.5t-46 143.5q0 103 30 195t79 141q32 32 87.5 62.5t94.5 45.5l233 91l13 49q12 52 12 75q0 66 -78 66q-49 0 -69.5 -32t-34.5 -105l-6 -31h-224l15 68q31 145 110 208.5t228 63.5q145 0 225 -51.5
t80 -145.5q0 -49 -29 -174l-102 -440q-4 -17 -11 -48.5t-9.5 -44.5t-6.5 -32.5t-5 -33t-1 -27.5q0 -41 20 -70zM418 221l65 285q-93 -38 -127.5 -59t-58.5 -52q-20 -27 -33.5 -73.5t-13.5 -85.5q0 -68 57 -68q39 0 111 53z" />
    <glyph glyph-name="b" unicode="b" horiz-adv-x="854" 
d="M322 1446h243l-112 -485q88 104 221 104q92 0 142 -51.5t50 -145.5q0 -33 -20 -123l-94 -417q-23 -105 -40.5 -155.5t-43.5 -88.5q-75 -107 -215 -107q-72 0 -119 28.5t-76 90.5l-25 -96h-243zM399 735l-94 -418q-8 -31 -8 -57q0 -40 22 -61t62 -21q48 0 77 36t48 120
l88 395q10 52 10 66q0 35 -21 55t-59 20q-51 0 -79.5 -31t-45.5 -104z" />
    <glyph glyph-name="c" unicode="c" 
d="M799 649h-240l23 92q12 54 12 80q0 34 -22 53t-60 19q-20 0 -34 -4t-31 -17.5t-31 -43.5t-25 -76l-100 -428q-17 -75 -17 -95q0 -32 24 -50.5t64 -18.5q46 0 70 28.5t43 104.5l29 121h239l-18 -82q-26 -116 -49.5 -172t-59.5 -94q-88 -91 -258 -91q-158 0 -238.5 60.5
t-80.5 177.5q0 51 18 137l90 398q18 79 48.5 138t65.5 93t81 54.5t86.5 27t89.5 6.5q152 0 235 -56.5t83 -160.5q0 -36 -19 -121z" />
    <glyph glyph-name="d" unicode="d" horiz-adv-x="854" 
d="M991 1446l-334 -1446h-245l24 96q-83 -116 -213 -116q-94 0 -145 49.5t-51 138.5q0 56 26 170l109 471q26 114 99 184t181 70q140 0 191 -113l115 496h243zM489 334l95 405q8 36 8 56q0 40 -23.5 62t-66.5 22q-44 0 -71 -31.5t-44 -104.5l-92 -405q-12 -54 -12 -80
q0 -34 20 -53t57 -19q49 0 79 33t50 115z" />
    <glyph glyph-name="e" unicode="e" 
d="M743 471h-415l-45 -207q-4 -20 -4 -33q0 -69 77 -69q41 0 65.5 26t37.5 86l16 70h236l-9 -39q-35 -171 -114.5 -249.5t-243.5 -78.5q-149 0 -226 61t-77 179q0 61 33 205l76 342q15 71 41 122.5t68.5 93t108.5 62.5t154 21q143 0 218 -59.5t75 -174.5q0 -51 -22 -145z
M541 637l26 125q8 36 8 53q0 68 -73 68q-43 0 -66 -24t-37 -81l-32 -141h174z" />
    <glyph glyph-name="f" unicode="f" horiz-adv-x="493" 
d="M715 1440l-45 -197q-30 6 -45 6q-46 0 -66.5 -29t-34.5 -92l-20 -88h108l-37 -163h-110l-201 -877h-241l200 877h-108l39 163h108l45 191q29 123 99.5 173t179.5 50q69 0 129 -14z" />
    <glyph glyph-name="g" unicode="g" horiz-adv-x="854" 
d="M655 1040h246l-237 -1036q-15 -67 -29 -112.5t-36 -92.5t-50.5 -76t-68.5 -53t-94.5 -34.5t-125.5 -10.5q-151 0 -229 53.5t-78 157.5q0 32 10 78h242q-8 -31 -8 -41q0 -31 24 -49.5t62 -18.5q54 0 79.5 32t45.5 124l24 113q-36 -45 -81.5 -65.5t-112.5 -20.5
q-100 0 -156.5 48.5t-56.5 133.5q0 36 22 141l105 455q32 141 101.5 218t197.5 77q132 0 186 -105zM485 309l97 422q8 31 8 60q0 41 -22.5 63.5t-63.5 22.5q-46 0 -73 -29.5t-42 -97.5l-94 -410q-14 -66 -14 -82q0 -37 22 -57.5t62 -20.5q91 0 120 129z" />
    <glyph glyph-name="h" unicode="h" horiz-adv-x="854" 
d="M322 1446h247l-112 -481q86 96 213 96q88 0 138 -45t50 -123q0 -43 -29 -172l-165 -721h-242l172 745q10 48 10 66q0 37 -19.5 56.5t-54.5 19.5q-49 0 -78 -32.5t-46 -106.5l-173 -748h-243z" />
    <glyph glyph-name="i" unicode="i" horiz-adv-x="425" 
d="M569 1446l-57 -246h-246l58 246h245zM475 1040l-239 -1040h-246l239 1040h246z" />
    <glyph glyph-name="j" unicode="j" horiz-adv-x="425" 
d="M565 1446l-57 -244h-244l58 244h243zM471 1040l-262 -1138q-33 -141 -105 -202.5t-210 -61.5q-42 0 -97 6l47 202q40 0 65 7t38.5 25t18 31t11.5 44l250 1087h244z" />
    <glyph glyph-name="k" unicode="k" 
d="M930 1040l-359 -434l170 -606h-264l-123 535l-123 -535h-241l334 1446h241l-174 -756l268 350h271z" />
    <glyph glyph-name="l" unicode="l" horiz-adv-x="425" 
d="M569 1446l-333 -1446h-246l334 1446h245z" />
    <glyph glyph-name="m" unicode="m" horiz-adv-x="1275" 
d="M229 1040h248l-20 -75q86 96 211 96q133 0 176 -107q61 57 119 82t127 25q89 0 139.5 -45t50.5 -123q0 -43 -29 -172l-166 -721h-241l172 745q8 39 8 66q0 76 -70 76q-25 0 -45.5 -10.5t-32.5 -24t-22 -36t-14 -36.5t-9 -35l-172 -745h-241l172 745q10 48 10 66
q0 36 -19 56t-53 20q-47 0 -76 -33t-46 -106l-173 -748h-243z" />
    <glyph glyph-name="n" unicode="n" horiz-adv-x="854" 
d="M229 1040h248l-20 -75q86 96 213 96q88 0 138 -45t50 -123q0 -43 -29 -172l-165 -721h-242l172 745q10 48 10 66q0 37 -19.5 56.5t-54.5 19.5q-49 0 -78 -32.5t-46 -106.5l-173 -748h-243z" />
    <glyph glyph-name="o" unicode="o" 
d="M801 741l-105 -454q-37 -163 -121 -237.5t-233 -74.5q-150 0 -229.5 61t-79.5 175q0 42 16 113l103 440q37 155 126 229t238 74q139 0 218 -59.5t79 -163.5q0 -44 -12 -103zM451 266l110 486q14 57 14 84q0 32 -18.5 49.5t-52.5 17.5q-50 0 -70 -29t-41 -122l-110 -478
q-11 -45 -11 -63q0 -31 20 -48.5t54 -17.5q43 0 66.5 26.5t38.5 94.5z" />
    <glyph glyph-name="p" unicode="p" horiz-adv-x="854" 
d="M227 1040h246l-24 -96q83 117 213 117q94 0 145 -49t51 -140q0 -51 -27 -170l-102 -446q-32 -139 -105.5 -209t-181.5 -70q-139 0 -190 113l-105 -450h-243zM498 297l92 408q12 52 12 77q0 34 -20.5 53t-57.5 19q-49 0 -79 -32.5t-50 -114.5l-94 -406q-8 -36 -8 -55
q0 -40 23.5 -62t64.5 -22q46 0 73 31t44 104z" />
    <glyph glyph-name="q" unicode="q" horiz-adv-x="854" 
d="M899 1040l-319 -1400h-244l100 440q-89 -105 -219 -105q-92 0 -142 51.5t-50 145.5q0 42 18 123l96 430q14 61 26.5 103t36 90t53 77t76 48.5t105.5 19.5q140 0 197 -119l24 96h242zM492 305l94 418q8 46 8 57q0 38 -22 60t-62 22q-49 0 -77.5 -35.5t-47.5 -119.5
l-88 -396q-10 -52 -10 -65q0 -36 21 -56t59 -20q48 0 77.5 28.5t47.5 106.5z" />
    <glyph glyph-name="r" unicode="r" horiz-adv-x="598" 
d="M231 1040h244l-33 -133q81 152 254 152h21l-58 -242q-39 17 -77 17q-89 0 -135.5 -54t-71.5 -162l-144 -618h-241z" />
    <glyph glyph-name="s" unicode="s" horiz-adv-x="768" 
d="M758 711h-211l16 73q6 27 6 47q0 68 -77 68q-47 0 -75 -34.5t-28 -94.5q0 -45 45 -82l119 -98q66 -56 95.5 -112.5t29.5 -131.5q0 -177 -97.5 -271.5t-279.5 -94.5q-140 0 -212.5 51.5t-72.5 152.5q0 42 23 146l8 37h225l-12 -50q-14 -55 -14 -92q0 -32 21.5 -51.5
t58.5 -19.5q54 0 87 45.5t33 117.5q0 36 -18 62.5t-76 75.5l-92 77q-108 89 -108 218q0 146 97 230.5t263 84.5q129 0 201.5 -51.5t72.5 -145.5q0 -30 -10 -75z" />
    <glyph glyph-name="t" unicode="t" horiz-adv-x="522" 
d="M625 1040l-37 -161h-121l-129 -555q-14 -58 -14 -86q0 -64 88 -64q5 0 45 4l-41 -176q-64 -12 -109 -12q-120 0 -176.5 44t-56.5 136q0 53 14 113l139 596h-108l37 161h106l90 390h242l-90 -390h121z" />
    <glyph glyph-name="u" unicode="u" horiz-adv-x="854" 
d="M895 1040l-240 -1040h-247l18 76q-83 -96 -211 -96q-88 0 -138 44.5t-50 122.5q0 56 26 172l168 721h242l-172 -745q-10 -48 -10 -66q0 -75 73 -75q48 0 78 33t47 106l172 747h244z" />
    <glyph glyph-name="v" unicode="v" horiz-adv-x="724" 
d="M862 1040l-495 -1040h-238l12 1040h240l-59 -721l292 721h248z" />
    <glyph glyph-name="w" unicode="w" horiz-adv-x="1150" 
d="M1288 1040l-481 -1040h-229l47 629l-273 -629h-231l29 1040h237l-53 -688l289 688h192l-49 -688l285 688h237z" />
    <glyph glyph-name="x" unicode="x" horiz-adv-x="761" 
d="M840 1040l-295 -477l104 -563h-256l-35 420l-202 -420h-258l348 563l-82 477h246l22 -348l162 348h246z" />
    <glyph glyph-name="y" unicode="y" horiz-adv-x="724" 
d="M856 1040l-526 -1177q-36 -82 -73 -128t-95.5 -71.5t-145.5 -25.5q-82 0 -170 18l80 190q55 -14 86 -14q106 0 154 166q-25 927 -29 1042h238l-17 -669l254 669h244z" />
    <glyph glyph-name="z" unicode="z" horiz-adv-x="724" 
d="M784 1040l-45 -194l-495 -643h374l-47 -203h-632l47 203l499 643h-323l47 194h575z" />
    <glyph glyph-name="braceleft" unicode="{" horiz-adv-x="643" 
d="M868 1565l-41 -185h-75q-65 0 -95 -41.5t-55 -146.5l-72 -309q-18 -82 -39.5 -131t-56 -78t-74 -41t-106.5 -19q79 -19 121.5 -66t42.5 -112q0 -47 -19 -131l-57 -248q-25 -115 -25 -143q0 -38 24 -60t65 -22h67l-41 -182h-149q-100 0 -153.5 55t-53.5 158q0 66 26 172
l66 278q14 61 14 97q0 63 -30.5 89.5t-118.5 32.5l41 181h10q48 0 74.5 3.5t52 14.5t40.5 36t28.5 62t27.5 99l80 348q17 74 38.5 124.5t56 89t84 57t118.5 18.5h184z" />
    <glyph glyph-name="bar" unicode="|" horiz-adv-x="419" 
d="M592 1561l-442 -1907h-242l440 1907h244z" />
    <glyph glyph-name="braceright" unicode="}" horiz-adv-x="643" 
d="M-158 -350l41 184h76q64 0 94.5 42.5t55.5 148.5l71 311q15 65 34.5 109.5t41 72t54.5 44.5t65 24.5t84 13.5q-78 17 -121 64.5t-43 113.5q0 62 16 133l58 248q24 104 24 131q0 92 -88 92h-67l43 185h147q104 0 156.5 -59t52.5 -167q0 -34 -29 -159l-63 -279
q-17 -74 -17 -96q0 -65 30 -92t120 -33l-41 -178h-10q-58 0 -88 -5.5t-58 -27.5t-44.5 -64t-33.5 -118l-77 -348q-33 -149 -99.5 -220t-199.5 -71h-185z" />
    <glyph glyph-name="asciitilde" unicode="~" horiz-adv-x="1144" 
d="M1018 782l63 -204q-145 -136 -303 -136q-38 0 -69 10.5t-84 41.5l-54 32q-66 41 -122 41q-45 0 -93 -24.5t-120 -89.5l-66 198q153 144 303 144q65 0 137 -43l78 -47q56 -35 109 -35q99 0 221 112z" />
    <glyph glyph-name="uni00A0" unicode="&#xa0;" horiz-adv-x="468" 
 />
    <glyph glyph-name="exclamdown" unicode="&#xa1;" horiz-adv-x="468" 
d="M567 1446l-61 -270h-244l62 270h243zM438 1057l-59 -404l-152 -653h-231l149 641l134 416h159z" />
    <glyph glyph-name="cent" unicode="&#xa2;" horiz-adv-x="831" 
d="M811 649h-240l23 92q12 54 12 80q0 34 -22 53t-60 19q-48 0 -74.5 -30t-46.5 -111l-100 -428q-14 -62 -14 -95q0 -32 23 -50.5t63 -18.5q46 0 69.5 28t42.5 105l29 121h242l-21 -82q-30 -121 -51.5 -175.5t-56.5 -90.5q-85 -88 -256 -91l-45 -192h-105l47 201
q-114 20 -166.5 75.5t-52.5 153.5q0 47 19 137l90 398q37 167 119.5 243t232.5 76h8l37 158h105l-37 -164q114 -20 168.5 -71.5t54.5 -139.5q0 -36 -19 -121z" />
    <glyph glyph-name="sterling" unicode="&#xa3;" horiz-adv-x="980" 
d="M113 569l28 125h172l-14 72q-16 90 -16 166q0 66 17.5 144.5t45.5 140.5q103 223 375 223q156 0 234.5 -65.5t78.5 -190.5q0 -37 -20 -125l-17 -74h-235l20 84q11 45 11 74q0 49 -25.5 75.5t-71.5 26.5q-78 0 -124 -84.5t-46 -228.5q0 -58 15 -146l18 -92h217l-31 -125
h-172q2 -23 2 -47q0 -85 -26.5 -150t-97.5 -153q67 -49 116 -49q44 0 71.5 35t49.5 119l21 79h206l-26 -110q-21 -87 -37 -129t-45 -78q-85 -111 -217 -111q-117 0 -258 107l-23 -21q-95 -84 -186 -84q-76 0 -124 43.5t-48 114.5q0 83 61.5 138t155.5 55q69 0 162 -45
q41 58 41 120q0 61 -31 166h-227zM225 152q-44 41 -86 41q-26 0 -42.5 -15.5t-16.5 -40.5q0 -20 12.5 -33.5t32.5 -13.5q39 0 90 51z" />
    <glyph glyph-name="currency" unicode="&#xa4;" horiz-adv-x="1433" 
d="M1460 1133l-176 -158q53 -115 53 -213q0 -110 -35.5 -215t-103.5 -182l141 -172l-188 -168l-141 172q-144 -78 -289 -78q-93 0 -157.5 21t-151.5 81l-181 -155l-161 194l180 158q-51 111 -51 229q0 207 135 379l-139 170l192 166l137 -168q131 78 293 78q86 0 154.5 -23
t150.5 -80l181 158zM1087 733q0 135 -81.5 221t-210.5 86q-146 0 -246 -110t-100 -273q0 -132 81 -219.5t205 -87.5q146 0 249 111.5t103 271.5z" />
    <glyph glyph-name="yen" unicode="&#xa5;" horiz-adv-x="854" 
d="M1044 1362l-331 -643h161l-34 -150h-203l-64 -116h240l-35 -146h-246l-69 -307h-268l69 307h-246l35 146h242l-6 116h-209l35 150h166l-39 643h272l-18 -647l272 647h276z" />
    <glyph glyph-name="brokenbar" unicode="&#xa6;" horiz-adv-x="419" 
d="M592 1563l-189 -824h-235l190 824h234zM342 477l-190 -823h-234l188 823h236z" />
    <glyph glyph-name="section" unicode="&#xa7;" horiz-adv-x="894" 
d="M944 1032h-237l20 96q10 42 10 76q0 40 -25.5 62t-72.5 22q-58 0 -91.5 -38.5t-33.5 -106.5q0 -65 76 -150l192 -213q107 -115 107 -227q0 -99 -52.5 -179.5t-179.5 -168.5q54 -76 54 -168q0 -82 -21 -148.5t-65.5 -120t-123 -83t-184.5 -29.5q-166 0 -254 63t-88 183
q0 43 17 123l24 106h240l-23 -111q-14 -68 -14 -88q0 -41 28 -63.5t79 -22.5q123 0 123 174q0 45 -19 80.5t-82 106.5l-184 207q-54 60 -76 110.5t-22 110.5q0 89 52 164t185 168q-25 40 -34 71t-9 74q0 165 102 261.5t293 96.5q151 0 237.5 -60.5t86.5 -164.5
q0 -47 -14 -119zM561 342l8 8q62 62 76 85t14 59q0 51 -43 100l-219 246q-96 -80 -96 -156q0 -29 13.5 -54t50.5 -67z" />
    <glyph glyph-name="dieresis" unicode="&#xa8;" horiz-adv-x="425" 
d="M563 1464l-57 -245h-238l58 245h237zM160 1464l-58 -245h-239l57 245h240z" />
    <glyph glyph-name="copyright" unicode="&#xa9;" horiz-adv-x="1677" 
d="M1161 844h-186l14 63q10 42 10 72q0 59 -75 59q-41 0 -63 -22.5t-34 -77.5l-86 -399q-12 -60 -12 -66q0 -26 23 -39.5t55 -13.5q45 0 63.5 24.5t34.5 90.5l21 81h188l-24 -110q-34 -151 -94 -204.5t-195 -53.5q-127 0 -198 53t-71 148q0 23 25 143l78 364q29 138 102 195
t221 57q113 0 173.5 -45.5t60.5 -130.5q0 -52 -10 -102zM1591 737q0 -157 -56 -295t-152.5 -236t-232.5 -155t-290 -57q-198 0 -365.5 97t-264.5 264.5t-97 367.5t97 367.5t264.5 264.5t367.5 97q196 0 364 -96t266.5 -261t98.5 -358zM1497 711q0 138 -49 260.5t-133 210
t-202 138t-251 50.5q-129 0 -246.5 -51.5t-202.5 -138.5t-135.5 -207t-50.5 -252q0 -177 84 -325.5t229.5 -234t319.5 -85.5q170 0 317 86t233.5 232.5t86.5 316.5z" />
    <glyph glyph-name="ordfeminine" unicode="&#xaa;" horiz-adv-x="577" 
d="M606 739h-178q-8 16 -8 31q0 17 4 35q-59 -80 -139 -80q-64 0 -97.5 38t-33.5 109q0 216 180 287l184 72l8 35q6 24 6 49q0 20 -14 31.5t-39 11.5q-49 0 -61 -62l-10 -49h-158l12 53q23 101 74.5 142t157.5 41q101 0 156 -35t55 -100q0 -46 -19 -123l-72 -307
q-20 -88 -20 -130q0 -30 12 -49zM440 905l43 180q-67 -28 -90 -41.5t-37 -35.5q-28 -40 -28 -95q0 -45 39 -45q25 0 73 37z" />
    <glyph glyph-name="guillemotleft" unicode="&#xab;" horiz-adv-x="641" 
d="M670 881l-49 -211l-111 -90l72 -84l-45 -193l-166 191l45 188zM373 881l-49 -211l-111 -90l72 -84l-45 -193l-166 191l45 188z" />
    <glyph glyph-name="logicalnot" unicode="&#xac;" horiz-adv-x="1144" 
d="M1047 713l-134 -584h-235l86 381h-623l47 203h859z" />
    <glyph glyph-name="uni00AD" unicode="&#xad;" horiz-adv-x="643" 
d="M633 698l-47 -202h-510l47 202h510z" />
    <glyph glyph-name="registered" unicode="&#xae;" horiz-adv-x="1677" 
d="M713 1198h311q70 0 110 -38t40 -109q0 -25 -7 -56l-20 -92q-17 -77 -48.5 -111.5t-97.5 -46.5q46 -14 66 -39t20 -69q0 -36 -10 -80l-35 -162q-6 -37 -6 -67q0 -37 17 -56h-187q-8 27 -8 47q0 27 8 58l35 164q12 56 12 71q0 32 -18 46t-59 14h-66l-88 -400h-170z
M1591 737q0 -157 -56 -295t-152.5 -236t-232.5 -155t-290 -57q-198 0 -365.5 97t-264.5 264.5t-97 367.5t97 367.5t264.5 264.5t367.5 97q196 0 364 -96t266.5 -261t98.5 -358zM1497 711q0 138 -49 260.5t-133 210t-202 138t-251 50.5q-129 0 -246.5 -51.5t-202.5 -138.5
t-135.5 -207t-50.5 -252q0 -177 84 -325.5t229.5 -234t319.5 -85.5q170 0 317 86t233.5 232.5t86.5 316.5zM803 821h63q62 0 80.5 18.5t36.5 90.5l10 41q6 24 6 35q0 27 -16 38t-55 11h-76z" />
    <glyph glyph-name="macron" unicode="&#xaf;" horiz-adv-x="425" 
d="M522 1382l-39 -165h-581l37 165h583z" />
    <glyph glyph-name="degree" unicode="&#xb0;" horiz-adv-x="724" 
d="M866 1210q0 -137 -96 -234t-231 -97q-137 0 -234.5 97.5t-97.5 233.5t96.5 233t231.5 97q140 0 235.5 -95.5t95.5 -234.5zM698 1214q0 66 -46.5 114t-112.5 48q-68 0 -116 -47.5t-48 -114.5q0 -66 48 -113.5t114 -47.5q67 0 114 46.5t47 114.5z" />
    <glyph glyph-name="plusminus" unicode="&#xb1;" horiz-adv-x="1144" 
d="M1075 850l-49 -205h-283l-73 -323h-236l74 323h-289l47 205h289l74 321h235l-73 -321h284zM928 207l-47 -207h-809l47 207h809z" />
    <glyph glyph-name="twosuperior" unicode="&#xb2;" horiz-adv-x="653" 
d="M555 459h-489q17 71 28 109.5t30.5 85.5t45.5 80t66.5 71.5t99.5 81.5q100 72 129.5 105t42.5 98l12 61q6 30 6 43q0 53 -63 53q-36 0 -54.5 -17.5t-27.5 -62.5l-23 -106h-159l24 108q25 106 83.5 155.5t160.5 49.5q106 0 165.5 -44.5t59.5 -119.5q0 -27 -6 -57l-12 -68
q-13 -75 -43.5 -124t-89.5 -97l-144 -119q-94 -76 -114 -147h301z" />
    <glyph glyph-name="threesuperior" unicode="&#xb3;" horiz-adv-x="653" 
d="M158 743h155l-10 -55q-6 -30 -6 -53q0 -62 68 -62q36 0 56.5 23t31.5 74l22 106q4 24 4 33q0 80 -100 80h-35l27 106h32q65 0 96.5 22t49.5 91l14 55q4 20 4 31q0 57 -65 57q-37 0 -56 -19.5t-32 -72.5l-17 -65h-155l14 63q27 119 85.5 170t176.5 51q104 0 158.5 -40
t54.5 -117q0 -16 -8 -56l-12 -59q-18 -86 -57.5 -118.5t-112.5 -39.5q102 -23 102 -127q0 -31 -10 -76l-21 -94q-22 -106 -82 -155.5t-176 -49.5q-106 0 -163.5 42t-57.5 120q0 46 12 90z" />
    <glyph glyph-name="acute" unicode="&#xb4;" horiz-adv-x="425" 
d="M455 1446l-299 -270h-185l185 270h299z" />
    <glyph glyph-name="mu" unicode="&#xb5;" horiz-adv-x="911" 
d="M932 1040l-180 -784q-4 -19 -10.5 -47t-9 -37t-5.5 -25.5t-4 -22.5t-2.5 -16.5t-1.5 -18v-19.5q0 -27 3.5 -40t16.5 -30h-256q-12 17 -12 45q0 21 4 41q-22 -51 -47 -71.5t-66 -20.5q-34 0 -53.5 12.5t-36.5 44.5l-94 -411h-244l324 1400h242l-166 -727q-10 -52 -10 -65
q0 -37 19 -57.5t54 -20.5q47 0 76.5 33.5t46.5 107.5l168 729h244z" />
    <glyph glyph-name="paragraph" unicode="&#xb6;" horiz-adv-x="1187" 
d="M1278 1446l-41 -170h-72l-372 -1618h-181l373 1618h-186l-375 -1618h-182l223 958q-232 111 -232 363q0 117 51.5 217.5t143.5 161.5q73 48 164 68t242 20h444z" />
    <glyph glyph-name="periodcentered" unicode="&#xb7;" horiz-adv-x="382" 
d="M385 729l-59 -264h-240l59 264h240z" />
    <glyph glyph-name="cedilla" unicode="&#xb8;" horiz-adv-x="425" 
d="M197 18h92l-29 -122q178 -9 178 -127q0 -75 -60.5 -115.5t-174.5 -40.5q-120 0 -215 35l18 59q61 -10 96 -10q95 0 95 59q0 22 -12.5 35.5t-41.5 22.5z" />
    <glyph glyph-name="onesuperior" unicode="&#xb9;" horiz-adv-x="653" 
d="M643 1362l-207 -903h-166l156 684q-61 -43 -147 -49l30 129q64 18 109.5 47t99.5 92h125z" />
    <glyph glyph-name="ordmasculine" unicode="&#xba;" horiz-adv-x="577" 
d="M715 1257l-76 -315q-28 -114 -88 -164.5t-166 -50.5q-107 0 -165 42t-58 120q0 23 12 78l74 307q26 108 90 159.5t172 51.5q99 0 156 -42t57 -114q0 -36 -8 -72zM459 920l80 333q10 45 10 60q0 47 -53 47q-51 0 -70 -72l-84 -342q-6 -23 -6 -45q0 -20 14 -32.5t39 -12.5
q54 0 70 64z" />
    <glyph glyph-name="guillemotright" unicode="&#xbb;" horiz-adv-x="641" 
d="M639 686l-43 -188l-256 -199l49 211l111 90l-72 84l45 193zM342 686l-43 -188l-256 -199l49 211l111 90l-70 84l43 193z" />
    <glyph glyph-name="onequarter" unicode="&#xbc;" horiz-adv-x="1449" 
d="M1257 1417l-866 -1511l-121 45l869 1513zM614 1362l-206 -903h-166l155 684q-61 -43 -147 -49l31 129q64 18 109 47t99 92h125zM1395 903l-133 -584h69l-35 -141h-67l-41 -178h-156l41 178h-291l33 133l381 592h199zM1217 758l-259 -439h148z" />
    <glyph glyph-name="onehalf" unicode="&#xbd;" horiz-adv-x="1449" 
d="M1239 1417l-864 -1511l-121 45l868 1513zM616 1362l-206 -903h-166l155 684q-61 -43 -147 -49l31 129q64 18 109.5 47t99.5 92h124zM1274 0h-490q16 69 27.5 108t31 83.5t46 77t66.5 69.5t100 80q100 72 129.5 105t42.5 98l12 61q6 30 6 43q0 53 -63 53
q-36 0 -54.5 -17.5t-27.5 -62.5l-23 -106h-159l24 108q25 106 83.5 155.5t160.5 49.5q106 0 165.5 -44.5t59.5 -119.5q0 -27 -6 -57l-12 -68q-13 -76 -43.5 -126t-89.5 -95l-144 -110q-94 -71 -115 -146h302z" />
    <glyph glyph-name="threequarters" unicode="&#xbe;" horiz-adv-x="1449" 
d="M1303 1419l-867 -1511l-121 45l869 1513zM150 743h155l-10 -55q-6 -30 -6 -53q0 -62 67 -62q36 0 56.5 23t31.5 74l23 106q4 24 4 33q0 80 -100 80h-35l26 106h33q65 0 96.5 22t49.5 91l14 55q4 20 4 31q0 57 -65 57q-37 0 -56 -19.5t-32 -72.5l-17 -65h-156l15 63
q27 119 85.5 170t176.5 51q104 0 158.5 -40t54.5 -117q0 -16 -8 -56l-13 -59q-18 -86 -57.5 -118.5t-112.5 -39.5q103 -24 103 -127q0 -31 -10 -76l-21 -94q-22 -106 -82 -155.5t-176 -49.5q-106 0 -163.5 42t-57.5 120q0 46 12 90zM1409 903l-133 -584h70l-35 -141h-68
l-41 -178h-155l40 178h-290l32 133l381 592h199zM1231 758l-258 -439h147z" />
    <glyph glyph-name="questiondown" unicode="&#xbf;" horiz-adv-x="854" 
d="M487 1059h232l-14 -66q-23 -101 -48 -151.5t-90 -118.5l-159 -166q-71 -74 -95 -131q-13 -34 -30 -109.5t-17 -101.5q0 -34 21.5 -53t60.5 -19q56 0 80.5 38.5t46.5 129.5l43 183h227l-34 -152q-11 -50 -19.5 -82t-24.5 -74.5t-34.5 -69t-47.5 -56t-65.5 -45.5t-88 -27
t-114.5 -11q-141 0 -217.5 58.5t-76.5 167.5q0 110 49 235q22 59 39.5 85t83.5 98l170 186q61 67 77 98.5t35 108.5zM510 1180l61 266h238l-61 -266h-238z" />
    <glyph glyph-name="Agrave" unicode="&#xc0;" horiz-adv-x="894" 
d="M510 1446h305l-39 -1446h-262l16 236h-245l-90 -236h-275zM365 459h184l45 620zM801 1561h-178l-234 272h301z" />
    <glyph glyph-name="Aacute" unicode="&#xc1;" horiz-adv-x="894" 
d="M510 1446h305l-39 -1446h-262l16 236h-245l-90 -236h-275zM365 459h184l45 620zM1014 1837l-295 -274h-189l166 274h318z" />
    <glyph glyph-name="Acircumflex" unicode="&#xc2;" horiz-adv-x="894" 
d="M510 1446h305l-39 -1446h-262l16 236h-245l-90 -236h-275zM365 459h184l45 620zM969 1561h-203l-70 149l-118 -149h-226l226 272h264z" />
    <glyph glyph-name="Atilde" unicode="&#xc3;" horiz-adv-x="894" 
d="M510 1446h305l-39 -1446h-262l16 236h-245l-90 -236h-275zM365 459h184l45 620zM915 1815h125q-33 -138 -81.5 -199.5t-127.5 -61.5q-50 0 -126 39l-62 31q-49 25 -76 25q-65 0 -92 -86h-137q33 130 87 192t142 62q45 0 117 -31l88 -41q40 -19 62 -19q28 0 44.5 18
t36.5 71z" />
    <glyph glyph-name="Adieresis" unicode="&#xc4;" horiz-adv-x="894" 
d="M510 1446h305l-39 -1446h-262l16 236h-245l-90 -236h-275zM365 459h184l45 620zM1057 1808l-58 -247h-237l57 247h238zM647 1808l-57 -247h-240l58 247h239z" />
    <glyph glyph-name="Aring" unicode="&#xc5;" horiz-adv-x="894" 
d="M510 1446h305l-39 -1446h-262l16 236h-245l-90 -236h-275zM365 459h184l45 620zM868 1698q0 -75 -53.5 -128.5t-128.5 -53.5t-128.5 54t-53.5 130q0 74 53.5 128t126.5 54q76 0 130 -54t54 -130zM770 1698q0 37 -24.5 63.5t-59.5 26.5q-37 0 -61.5 -25.5t-24.5 -62.5
t25.5 -62.5t60.5 -25.5q34 0 59 25.5t25 60.5z" />
    <glyph glyph-name="AE" unicode="&#xc6;" horiz-adv-x="1458" 
d="M1610 1446l-51 -223h-424l-78 -334h420l-52 -217h-417l-105 -449h492l-52 -223h-757l69 299h-268l-170 -299h-309l878 1446h824zM854 1147l-346 -629h197z" />
    <glyph glyph-name="Ccedilla" unicode="&#xc7;" horiz-adv-x="937" 
d="M915 543l-38 -174q-26 -117 -63 -193.5t-93 -122t-124.5 -64.5t-168.5 -22l-16 -71q176 -9 176 -127q0 -75 -60 -115.5t-174 -40.5q-135 0 -213 35l19 59q59 -10 94 -10q94 0 94 59q0 41 -53 58l41 159q-270 19 -270 256q0 55 22 152l166 713q50 209 156 296t313 87
q167 0 254.5 -59t87.5 -173q0 -55 -21 -147l-40 -178h-263l33 147q17 79 17 109q0 46 -24.5 71t-84.5 25q-64 0 -100 -36.5t-56 -121.5l-176 -758q-12 -59 -12 -88q0 -44 28.5 -68t82.5 -24q69 0 103.5 38t57.5 140l43 189h262z" />
    <glyph glyph-name="Egrave" unicode="&#xc8;" horiz-adv-x="854" 
d="M1034 1446l-51 -219h-434l-78 -340h410l-52 -219h-409l-103 -445h455l-51 -223h-721l334 1446h700zM836 1561h-179l-233 272h301z" />
    <glyph glyph-name="Eacute" unicode="&#xc9;" horiz-adv-x="854" 
d="M1034 1446l-51 -219h-434l-78 -340h410l-52 -219h-409l-103 -445h455l-51 -223h-721l334 1446h700zM1032 1837l-295 -274h-188l166 274h317z" />
    <glyph glyph-name="Ecircumflex" unicode="&#xca;" horiz-adv-x="854" 
d="M1034 1446l-51 -219h-434l-78 -340h410l-52 -219h-409l-103 -445h455l-51 -223h-721l334 1446h700zM997 1561h-202l-70 149l-119 -149h-225l225 272h264z" />
    <glyph glyph-name="Edieresis" unicode="&#xcb;" horiz-adv-x="854" 
d="M1034 1446l-51 -219h-434l-78 -340h410l-52 -219h-409l-103 -445h455l-51 -223h-721l334 1446h700zM1085 1808l-57 -247h-237l57 247h237zM676 1808l-58 -247h-239l57 247h240z" />
    <glyph glyph-name="Igrave" unicode="&#xcc;" horiz-adv-x="466" 
d="M598 1446l-334 -1446h-264l334 1446h264zM625 1561h-179l-233 272h301z" />
    <glyph glyph-name="Iacute" unicode="&#xcd;" horiz-adv-x="466" 
d="M598 1446l-334 -1446h-264l334 1446h264zM815 1837l-295 -274h-188l166 274h317z" />
    <glyph glyph-name="Icircumflex" unicode="&#xce;" horiz-adv-x="466" 
d="M598 1446l-334 -1446h-264l334 1446h264zM791 1561h-203l-70 149l-119 -149h-225l225 272h265z" />
    <glyph glyph-name="Idieresis" unicode="&#xcf;" horiz-adv-x="466" 
d="M598 1446l-334 -1446h-264l334 1446h264zM870 1808l-57 -247h-238l58 247h237zM461 1808l-58 -247h-239l57 247h240z" />
    <glyph glyph-name="Eth" unicode="&#xd0;" horiz-adv-x="980" 
d="M334 1446h403q162 0 241 -62.5t79 -191.5q0 -57 -31 -186l-158 -680q-19 -80 -49.5 -138t-68 -94t-89 -57.5t-105.5 -29t-124 -7.5h-432l188 803h-118l36 153h117zM551 1235l-62 -279h156l-35 -153h-155l-140 -592h95q53 0 84 6t56 25.5t40 53t28 91.5l156 676
q12 55 12 80q0 51 -32 71.5t-115 20.5h-88z" />
    <glyph glyph-name="Ntilde" unicode="&#xd1;" horiz-adv-x="1024" 
d="M1153 1446l-334 -1446h-336l-6 1083l-227 -1083h-250l334 1446h342l14 -1061l219 1061h244zM1024 1815h125q-33 -138 -81.5 -199.5t-127.5 -61.5q-51 0 -127 39l-61 31q-49 25 -76 25q-65 0 -92 -86h-138q33 130 87.5 192t142.5 62q45 0 117 -31l88 -41q40 -19 61 -19
q28 0 45 18.5t37 70.5z" />
    <glyph glyph-name="Ograve" unicode="&#xd2;" horiz-adv-x="980" 
d="M1030 1057l-162 -705q-16 -71 -35 -122.5t-53 -103.5t-79 -84.5t-115 -52.5t-160 -20q-367 0 -367 283q0 61 25 172l154 659q34 146 84.5 230t136.5 125t221 41q178 0 274.5 -73t96.5 -208q0 -45 -21 -141zM604 369l164 704q14 59 14 101q0 49 -30 75.5t-84 26.5
q-69 0 -102 -36.5t-60 -154.5l-160 -692q-20 -90 -20 -114q0 -101 120 -101q33 0 57.5 10t39 23t27 42.5t18.5 50.5t16 65zM831 1561h-178l-233 272h301z" />
    <glyph glyph-name="Oacute" unicode="&#xd3;" horiz-adv-x="980" 
d="M1030 1057l-162 -705q-16 -71 -35 -122.5t-53 -103.5t-79 -84.5t-115 -52.5t-160 -20q-367 0 -367 283q0 61 25 172l154 659q34 146 84.5 230t136.5 125t221 41q178 0 274.5 -73t96.5 -208q0 -45 -21 -141zM604 369l164 704q14 59 14 101q0 49 -30 75.5t-84 26.5
q-69 0 -102 -36.5t-60 -154.5l-160 -692q-20 -90 -20 -114q0 -101 120 -101q33 0 57.5 10t39 23t27 42.5t18.5 50.5t16 65zM1055 1837l-295 -274h-189l166 274h318z" />
    <glyph glyph-name="Ocircumflex" unicode="&#xd4;" horiz-adv-x="980" 
d="M1030 1057l-162 -705q-16 -71 -35 -122.5t-53 -103.5t-79 -84.5t-115 -52.5t-160 -20q-367 0 -367 283q0 61 25 172l154 659q34 146 84.5 230t136.5 125t221 41q178 0 274.5 -73t96.5 -208q0 -45 -21 -141zM604 369l164 704q14 59 14 101q0 49 -30 75.5t-84 26.5
q-69 0 -102 -36.5t-60 -154.5l-160 -692q-20 -90 -20 -114q0 -101 120 -101q33 0 57.5 10t39 23t27 42.5t18.5 50.5t16 65zM1022 1561h-203l-69 149l-119 -149h-225l225 272h264z" />
    <glyph glyph-name="Otilde" unicode="&#xd5;" horiz-adv-x="980" 
d="M1030 1057l-162 -705q-16 -71 -35 -122.5t-53 -103.5t-79 -84.5t-115 -52.5t-160 -20q-367 0 -367 283q0 61 25 172l154 659q34 146 84.5 230t136.5 125t221 41q178 0 274.5 -73t96.5 -208q0 -45 -21 -141zM604 369l164 704q14 59 14 101q0 49 -30 75.5t-84 26.5
q-69 0 -102 -36.5t-60 -154.5l-160 -692q-20 -90 -20 -114q0 -101 120 -101q33 0 57.5 10t39 23t27 42.5t18.5 50.5t16 65zM967 1815h125q-33 -138 -81.5 -199.5t-127.5 -61.5q-51 0 -127 39l-62 31q-49 25 -76 25q-65 0 -92 -86h-137q33 130 87 192t142 62q45 0 117 -31
l88 -41q40 -19 62 -19q28 0 45 18.5t37 70.5z" />
    <glyph glyph-name="Odieresis" unicode="&#xd6;" horiz-adv-x="980" 
d="M1030 1057l-162 -705q-16 -71 -35 -122.5t-53 -103.5t-79 -84.5t-115 -52.5t-160 -20q-367 0 -367 283q0 61 25 172l154 659q34 146 84.5 230t136.5 125t221 41q178 0 274.5 -73t96.5 -208q0 -45 -21 -141zM604 369l164 704q14 59 14 101q0 49 -30 75.5t-84 26.5
q-69 0 -102 -36.5t-60 -154.5l-160 -692q-20 -90 -20 -114q0 -101 120 -101q33 0 57.5 10t39 23t27 42.5t18.5 50.5t16 65zM1100 1808l-58 -247h-237l57 247h238zM690 1808l-57 -247h-240l58 247h239z" />
    <glyph glyph-name="multiply" unicode="&#xd7;" horiz-adv-x="1142" 
d="M950 821l-229 -227l164 -264l-189 -137l-143 237l-209 -207l-129 162l227 225l-161 267l186 135l143 -238l209 209z" />
    <glyph glyph-name="Oslash" unicode="&#xd8;" horiz-adv-x="980" 
d="M1151 1360l-102 -123q2 -16 2 -35q0 -52 -21 -145l-151 -662q-42 -178 -80 -243q-51 -89 -145.5 -136t-223.5 -47q-231 0 -319 111l-58 -72l-104 88l110 133v23q0 64 25 172l154 661q27 116 65 192.5t94 121t124 62.5t163 18q203 0 307 -107l58 68zM406 653l368 453
q8 33 8 65q0 51 -30 78t-84 27q-63 0 -98.5 -35.5t-55.5 -120.5zM705 803l-367 -441q-12 -52 -12 -90q0 -44 31.5 -69t88.5 -25q76 0 105 42t55 155z" />
    <glyph glyph-name="Ugrave" unicode="&#xd9;" horiz-adv-x="974" 
d="M1106 1446l-258 -1120q-43 -186 -148.5 -271.5t-293.5 -85.5q-169 0 -258 71t-89 206q0 44 27 166l238 1034h266l-242 -1049q-18 -86 -18 -104q0 -46 29 -71t83 -25q60 0 92.5 38.5t55.5 137.5l248 1073h268zM868 1561h-178l-233 272h301z" />
    <glyph glyph-name="Uacute" unicode="&#xda;" horiz-adv-x="974" 
d="M1106 1446l-258 -1120q-43 -186 -148.5 -271.5t-293.5 -85.5q-169 0 -258 71t-89 206q0 44 27 166l238 1034h266l-242 -1049q-18 -86 -18 -104q0 -46 29 -71t83 -25q60 0 92.5 38.5t55.5 137.5l248 1073h268zM1057 1837l-295 -274h-189l166 274h318z" />
    <glyph glyph-name="Ucircumflex" unicode="&#xdb;" horiz-adv-x="974" 
d="M1106 1446l-258 -1120q-43 -186 -148.5 -271.5t-293.5 -85.5q-169 0 -258 71t-89 206q0 44 27 166l238 1034h266l-242 -1049q-18 -86 -18 -104q0 -46 29 -71t83 -25q60 0 92.5 38.5t55.5 137.5l248 1073h268zM1034 1561h-203l-69 149l-119 -149h-225l225 272h264z" />
    <glyph glyph-name="Udieresis" unicode="&#xdc;" horiz-adv-x="974" 
d="M1106 1446l-258 -1120q-43 -186 -148.5 -271.5t-293.5 -85.5q-169 0 -258 71t-89 206q0 44 27 166l238 1034h266l-242 -1049q-18 -86 -18 -104q0 -46 29 -71t83 -25q60 0 92.5 38.5t55.5 137.5l248 1073h268zM1112 1808l-57 -247h-238l57 247h238zM702 1808l-57 -247
h-239l57 247h239z" />
    <glyph glyph-name="Yacute" unicode="&#xdd;" horiz-adv-x="854" 
d="M1081 1446l-522 -1018l-100 -428h-273l105 446l-60 1000h273l-12 -729l303 729h286zM1006 1837l-295 -274h-189l166 274h318z" />
    <glyph glyph-name="Thorn" unicode="&#xde;" horiz-adv-x="935" 
d="M334 1446h268l-67 -289h172q276 0 276 -221q0 -67 -16 -129l-62 -262q-53 -232 -321 -232h-242l-74 -313h-268zM487 944l-98 -424h129q79 0 105 23t45 106l34 148q11 53 11 67q0 43 -25.5 61.5t-85.5 18.5h-115z" />
    <glyph glyph-name="germandbls" unicode="&#xdf;" horiz-adv-x="854" 
d="M233 0h-243l276 1192q35 151 113.5 218t236.5 67q143 0 222.5 -56.5t79.5 -158.5q0 -43 -13 -97l-18 -84q-23 -106 -61.5 -144.5t-129.5 -49.5q79 -15 113.5 -46.5t34.5 -90.5q0 -43 -17 -113l-84 -367q-6 -26 -8.5 -36.5t-11.5 -39t-16 -43.5t-22 -41t-30 -41t-39 -34
t-50.5 -29t-62.5 -17t-77 -7q-59 0 -137 18l35 141q23 -4 47 -4q54 0 83 27.5t46 99.5l86 371q8 36 8 70q0 69 -98 69h-37l39 166h28q66 0 94.5 23t43.5 90l26 112q8 36 8 64q0 34 -23.5 52.5t-64.5 18.5q-17 0 -29.5 -3t-27 -11.5t-25 -27.5t-16.5 -48z" />
    <glyph glyph-name="agrave" unicode="&#xe0;" 
d="M657 0h-256q-12 17 -12 45q0 22 4 47q-84 -115 -209 -115q-86 0 -132 49.5t-46 143.5q0 103 30 195t79 141q32 32 87.5 62.5t94.5 45.5l233 91l13 49q12 52 12 75q0 66 -78 66q-49 0 -69.5 -32t-34.5 -105l-6 -31h-224l15 68q31 145 110 208.5t228 63.5q145 0 225 -51.5
t80 -145.5q0 -49 -29 -174l-102 -440q-4 -17 -11 -48.5t-9.5 -44.5t-6.5 -32.5t-5 -33t-1 -27.5q0 -41 20 -70zM418 221l65 285q-93 -38 -127.5 -59t-58.5 -52q-20 -27 -33.5 -73.5t-13.5 -85.5q0 -68 57 -68q39 0 111 53zM662 1176h-177l-274 270h313z" />
    <glyph glyph-name="aacute" unicode="&#xe1;" 
d="M657 0h-256q-12 17 -12 45q0 22 4 47q-84 -115 -209 -115q-86 0 -132 49.5t-46 143.5q0 103 30 195t79 141q32 32 87.5 62.5t94.5 45.5l233 91l13 49q12 52 12 75q0 66 -78 66q-49 0 -69.5 -32t-34.5 -105l-6 -31h-224l15 68q31 145 110 208.5t228 63.5q145 0 225 -51.5
t80 -145.5q0 -49 -29 -174l-102 -440q-4 -17 -11 -48.5t-9.5 -44.5t-6.5 -32.5t-5 -33t-1 -27.5q0 -41 20 -70zM418 221l65 285q-93 -38 -127.5 -59t-58.5 -52q-20 -27 -33.5 -73.5t-13.5 -85.5q0 -68 57 -68q39 0 111 53zM883 1446l-299 -270h-185l185 270h299z" />
    <glyph glyph-name="acircumflex" unicode="&#xe2;" 
d="M657 0h-256q-12 17 -12 45q0 22 4 47q-84 -115 -209 -115q-86 0 -132 49.5t-46 143.5q0 103 30 195t79 141q32 32 87.5 62.5t94.5 45.5l233 91l13 49q12 52 12 75q0 66 -78 66q-49 0 -69.5 -32t-34.5 -105l-6 -31h-224l15 68q31 145 110 208.5t228 63.5q145 0 225 -51.5
t80 -145.5q0 -49 -29 -174l-102 -440q-4 -17 -11 -48.5t-9.5 -44.5t-6.5 -32.5t-5 -33t-1 -27.5q0 -41 20 -70zM418 221l65 285q-93 -38 -127.5 -59t-58.5 -52q-20 -27 -33.5 -73.5t-13.5 -85.5q0 -68 57 -68q39 0 111 53zM838 1176h-205l-55 149l-134 -149h-225l240 270
h264z" />
    <glyph glyph-name="atilde" unicode="&#xe3;" 
d="M657 0h-256q-12 17 -12 45q0 22 4 47q-84 -115 -209 -115q-86 0 -132 49.5t-46 143.5q0 103 30 195t79 141q32 32 87.5 62.5t94.5 45.5l233 91l13 49q12 52 12 75q0 66 -78 66q-49 0 -69.5 -32t-34.5 -105l-6 -31h-224l15 68q31 145 110 208.5t228 63.5q145 0 225 -51.5
t80 -145.5q0 -49 -29 -174l-102 -440q-4 -17 -11 -48.5t-9.5 -44.5t-6.5 -32.5t-5 -33t-1 -27.5q0 -41 20 -70zM418 221l65 285q-93 -38 -127.5 -59t-58.5 -52q-20 -27 -33.5 -73.5t-13.5 -85.5q0 -68 57 -68q39 0 111 53zM768 1430h123q-28 -132 -77 -195.5t-124 -63.5
q-45 0 -129 45.5t-123 45.5q-31 0 -51.5 -19.5t-40.5 -66.5h-123q26 120 86.5 188t141.5 68q42 0 91 -22t89 -44.5t61 -22.5q26 0 43.5 20t32.5 67z" />
    <glyph glyph-name="adieresis" unicode="&#xe4;" 
d="M657 0h-256q-12 17 -12 45q0 22 4 47q-84 -115 -209 -115q-86 0 -132 49.5t-46 143.5q0 103 30 195t79 141q32 32 87.5 62.5t94.5 45.5l233 91l13 49q12 52 12 75q0 66 -78 66q-49 0 -69.5 -32t-34.5 -105l-6 -31h-224l15 68q31 145 110 208.5t228 63.5q145 0 225 -51.5
t80 -145.5q0 -49 -29 -174l-102 -440q-4 -17 -11 -48.5t-9.5 -44.5t-6.5 -32.5t-5 -33t-1 -27.5q0 -41 20 -70zM418 221l65 285q-93 -38 -127.5 -59t-58.5 -52q-20 -27 -33.5 -73.5t-13.5 -85.5q0 -68 57 -68q39 0 111 53zM918 1464l-58 -245h-237l57 245h238zM514 1464
l-57 -245h-240l57 245h240z" />
    <glyph glyph-name="aring" unicode="&#xe5;" 
d="M657 0h-256q-12 17 -12 45q0 22 4 47q-84 -115 -209 -115q-86 0 -132 49.5t-46 143.5q0 103 30 195t79 141q32 32 87.5 62.5t94.5 45.5l233 91l13 49q12 52 12 75q0 66 -78 66q-49 0 -69.5 -32t-34.5 -105l-6 -31h-224l15 68q31 145 110 208.5t228 63.5q145 0 225 -51.5
t80 -145.5q0 -49 -29 -174l-102 -440q-4 -17 -11 -48.5t-9.5 -44.5t-6.5 -32.5t-5 -33t-1 -27.5q0 -41 20 -70zM418 221l65 285q-93 -38 -127.5 -59t-58.5 -52q-20 -27 -33.5 -73.5t-13.5 -85.5q0 -68 57 -68q39 0 111 53zM723 1358q0 -75 -54.5 -129.5t-129.5 -54.5
t-130 52.5t-55 127.5q0 78 53.5 132t131.5 54t131 -52t53 -130zM623 1356q0 37 -24 62.5t-58 25.5q-37 0 -62.5 -25.5t-25.5 -62.5q0 -35 24.5 -60.5t59.5 -25.5q36 0 61 25t25 61z" />
    <glyph glyph-name="ae" unicode="&#xe6;" horiz-adv-x="1193" 
d="M1126 473h-415l-35 -149q-14 -59 -14 -86q0 -32 20 -50t55 -18q41 0 65.5 26.5t39.5 86.5l16 63h236l-9 -39q-35 -171 -114.5 -249t-241.5 -78q-104 0 -168 27.5t-102 90.5q-115 -118 -258 -118q-100 0 -147.5 47t-47.5 147q0 123 36 210.5t97.5 140t157.5 89.5l233 91
l13 49q12 52 12 75q0 66 -78 66q-23 0 -40.5 -9t-27.5 -20t-18 -34.5t-11 -38t-9 -45.5l-4 -21h-224l15 66q31 144 108.5 209t229.5 65q127 0 211 -43q56 24 96 32.5t98 8.5q146 0 221.5 -59.5t75.5 -176.5q0 -49 -22 -143zM924 639l24 113q8 36 8 53q0 67 -75 67
q-42 0 -66.5 -24t-36.5 -80l-28 -129h174zM432 233l53 275q-94 -39 -129 -60.5t-59 -52.5q-20 -27 -33.5 -73.5t-13.5 -85.5q0 -66 55 -66q49 0 127 63z" />
    <glyph glyph-name="ccedilla" unicode="&#xe7;" 
d="M799 649h-240l23 92q12 54 12 80q0 34 -22 53t-60 19q-20 0 -34 -4t-31 -17t-31 -43t-25 -77l-100 -428q-17 -75 -17 -95q0 -32 24 -50.5t64 -18.5q46 0 70 28.5t43 104.5l29 121h239l-18 -82q-26 -116 -49.5 -172t-59.5 -94q-85 -88 -254 -91l-16 -79q176 -9 176 -127
q0 -75 -60.5 -115.5t-174.5 -40.5q-134 0 -213 35l18 59q61 -10 96 -10q93 0 93 59q0 41 -52 58l43 168q-120 17 -176.5 73.5t-56.5 157.5q0 51 18 137l90 398q18 78 47 136t63.5 92.5t79 55.5t87 28t94.5 7q152 0 235 -56.5t83 -160.5q0 -36 -19 -121z" />
    <glyph glyph-name="egrave" unicode="&#xe8;" 
d="M743 471h-415l-45 -207q-4 -20 -4 -33q0 -69 77 -69q41 0 65.5 26t37.5 86l16 70h236l-9 -39q-35 -171 -114.5 -249.5t-243.5 -78.5q-149 0 -226 61t-77 179q0 61 33 205l76 342q15 71 41 122.5t68.5 93t108.5 62.5t154 21q143 0 218 -59.5t75 -174.5q0 -51 -22 -145z
M541 637l26 125q8 36 8 53q0 68 -73 68q-43 0 -66 -24t-37 -81l-32 -141h174zM659 1176h-176l-274 270h313z" />
    <glyph glyph-name="eacute" unicode="&#xe9;" 
d="M743 471h-415l-45 -207q-4 -20 -4 -33q0 -69 77 -69q41 0 65.5 26t37.5 86l16 70h236l-9 -39q-35 -171 -114.5 -249.5t-243.5 -78.5q-149 0 -226 61t-77 179q0 61 33 205l76 342q15 71 41 122.5t68.5 93t108.5 62.5t154 21q143 0 218 -59.5t75 -174.5q0 -51 -22 -145z
M541 637l26 125q8 36 8 53q0 68 -73 68q-43 0 -66 -24t-37 -81l-32 -141h174zM885 1446l-299 -270h-185l185 270h299z" />
    <glyph glyph-name="ecircumflex" unicode="&#xea;" 
d="M743 471h-415l-45 -207q-4 -20 -4 -33q0 -69 77 -69q41 0 65.5 26t37.5 86l16 70h236l-9 -39q-35 -171 -114.5 -249.5t-243.5 -78.5q-149 0 -226 61t-77 179q0 61 33 205l76 342q15 71 41 122.5t68.5 93t108.5 62.5t154 21q143 0 218 -59.5t75 -174.5q0 -51 -22 -145z
M541 637l26 125q8 36 8 53q0 68 -73 68q-43 0 -66 -24t-37 -81l-32 -141h174zM848 1176h-205l-55 149l-133 -149h-226l240 270h264z" />
    <glyph glyph-name="edieresis" unicode="&#xeb;" 
d="M743 471h-415l-45 -207q-4 -20 -4 -33q0 -69 77 -69q41 0 65.5 26t37.5 86l16 70h236l-9 -39q-35 -171 -114.5 -249.5t-243.5 -78.5q-149 0 -226 61t-77 179q0 61 33 205l76 342q15 71 41 122.5t68.5 93t108.5 62.5t154 21q143 0 218 -59.5t75 -174.5q0 -51 -22 -145z
M541 637l26 125q8 36 8 53q0 68 -73 68q-43 0 -66 -24t-37 -81l-32 -141h174zM922 1464l-58 -245h-237l57 245h238zM518 1464l-57 -245h-240l58 245h239z" />
    <glyph glyph-name="igrave" unicode="&#xec;" horiz-adv-x="425" 
d="M475 1040l-239 -1040h-246l239 1040h246zM516 1176h-176l-274 270h313z" />
    <glyph glyph-name="iacute" unicode="&#xed;" horiz-adv-x="425" 
d="M475 1040l-239 -1040h-246l239 1040h246zM707 1446l-299 -270h-185l185 270h299z" />
    <glyph glyph-name="icircumflex" unicode="&#xee;" horiz-adv-x="425" 
d="M475 1040l-239 -1040h-246l239 1040h246zM676 1176h-205l-55 149l-133 -149h-226l240 270h264z" />
    <glyph glyph-name="idieresis" unicode="&#xef;" horiz-adv-x="425" 
d="M475 1040l-239 -1040h-246l239 1040h246zM748 1464l-58 -245h-237l57 245h238zM344 1464l-57 -245h-240l57 245h240z" />
    <glyph glyph-name="eth" unicode="&#xf0;" 
d="M823 1352l-108 -68q104 -162 104 -354q0 -103 -26 -223l-97 -420q-37 -163 -121 -237.5t-233 -74.5q-150 0 -229.5 61t-79.5 175q0 42 16 113l94 405q35 151 121 226t199 75q83 0 135 -47q-15 111 -55 195l-156 -95l-55 91l160 98l-9 10q-17 21 -38.5 49.5t-36.5 47
t-33 36.5l145 92q80 -59 135 -135l117 72zM451 266l102 451q14 57 14 86q0 65 -71 65q-40 0 -64.5 -24.5t-36.5 -79.5l-112 -490q-11 -45 -11 -63q0 -31 20 -48.5t54 -17.5q43 0 66.5 26.5t38.5 94.5z" />
    <glyph glyph-name="ntilde" unicode="&#xf1;" horiz-adv-x="854" 
d="M229 1040h248l-20 -75q86 96 213 96q88 0 138 -45t50 -123q0 -43 -29 -172l-165 -721h-242l172 745q10 48 10 66q0 37 -19.5 56.5t-54.5 19.5q-49 0 -78 -32.5t-46 -106.5l-173 -748h-243zM801 1430h123q-28 -132 -77 -195.5t-124 -63.5q-45 0 -129 45.5t-123 45.5
q-31 0 -51.5 -19.5t-40.5 -66.5h-123q26 121 86 188.5t141 67.5q42 0 91 -22t89.5 -44.5t61.5 -22.5q26 0 43.5 20t32.5 67z" />
    <glyph glyph-name="ograve" unicode="&#xf2;" 
d="M801 741l-105 -454q-37 -163 -121 -237.5t-233 -74.5q-150 0 -229.5 61t-79.5 175q0 42 16 113l103 440q37 155 126 229t238 74q139 0 218 -59.5t79 -163.5q0 -44 -12 -103zM451 266l110 486q14 57 14 84q0 32 -18.5 49.5t-52.5 17.5q-50 0 -70 -29t-41 -122l-110 -478
q-11 -45 -11 -63q0 -31 20 -48.5t54 -17.5q43 0 66.5 26.5t38.5 94.5zM676 1176h-176l-275 270h314z" />
    <glyph glyph-name="oacute" unicode="&#xf3;" 
d="M801 741l-105 -454q-37 -163 -121 -237.5t-233 -74.5q-150 0 -229.5 61t-79.5 175q0 42 16 113l103 440q37 155 126 229t238 74q139 0 218 -59.5t79 -163.5q0 -44 -12 -103zM451 266l110 486q14 57 14 84q0 32 -18.5 49.5t-52.5 17.5q-50 0 -70 -29t-41 -122l-110 -478
q-11 -45 -11 -63q0 -31 20 -48.5t54 -17.5q43 0 66.5 26.5t38.5 94.5zM891 1446l-299 -270h-184l184 270h299z" />
    <glyph glyph-name="ocircumflex" unicode="&#xf4;" 
d="M801 741l-105 -454q-37 -163 -121 -237.5t-233 -74.5q-150 0 -229.5 61t-79.5 175q0 42 16 113l103 440q37 155 126 229t238 74q139 0 218 -59.5t79 -163.5q0 -44 -12 -103zM451 266l110 486q14 57 14 84q0 32 -18.5 49.5t-52.5 17.5q-50 0 -70 -29t-41 -122l-110 -478
q-11 -45 -11 -63q0 -31 20 -48.5t54 -17.5q43 0 66.5 26.5t38.5 94.5zM846 1176h-205l-55 149l-133 -149h-226l240 270h264z" />
    <glyph glyph-name="otilde" unicode="&#xf5;" 
d="M801 741l-105 -454q-37 -163 -121 -237.5t-233 -74.5q-150 0 -229.5 61t-79.5 175q0 42 16 113l103 440q37 155 126 229t238 74q139 0 218 -59.5t79 -163.5q0 -44 -12 -103zM451 266l110 486q14 57 14 84q0 32 -18.5 49.5t-52.5 17.5q-50 0 -70 -29t-41 -122l-110 -478
q-11 -45 -11 -63q0 -31 20 -48.5t54 -17.5q43 0 66.5 26.5t38.5 94.5zM768 1430h123q-28 -132 -77 -195.5t-124 -63.5q-45 0 -129 45.5t-123 45.5q-31 0 -51.5 -19.5t-40.5 -66.5h-123q26 120 86.5 188t141.5 68q42 0 91 -22t89 -44.5t61 -22.5q26 0 43.5 20t32.5 67z" />
    <glyph glyph-name="odieresis" unicode="&#xf6;" 
d="M801 741l-105 -454q-37 -163 -121 -237.5t-233 -74.5q-150 0 -229.5 61t-79.5 175q0 42 16 113l103 440q37 155 126 229t238 74q139 0 218 -59.5t79 -163.5q0 -44 -12 -103zM451 266l110 486q14 57 14 84q0 32 -18.5 49.5t-52.5 17.5q-50 0 -70 -29t-41 -122l-110 -478
q-11 -45 -11 -63q0 -31 20 -48.5t54 -17.5q43 0 66.5 26.5t38.5 94.5zM930 1464l-58 -245h-237l57 245h238zM526 1464l-57 -245h-240l58 245h239z" />
    <glyph glyph-name="divide" unicode="&#xf7;" horiz-adv-x="1144" 
d="M840 1092l-60 -263h-229l59 263h230zM1059 715l-47 -207h-840l47 207h840zM682 393l-59 -262h-230l60 262h229z" />
    <glyph glyph-name="oslash" unicode="&#xf8;" 
d="M834 1038l71 -69l-92 -95v-24q0 -50 -12 -109l-105 -454q-37 -163 -121 -237.5t-233 -74.5q-184 0 -266 99l-72 -72l-72 64l103 112v33q0 44 14 113l103 440q37 155 126.5 229t237.5 74q88 0 148 -22.5t106 -73.5zM332 498l231 250l4 16q11 51 11 72q0 32 -19.5 49.5
t-54.5 17.5q-77 0 -98 -94zM520 561l-231 -258l-8 -31q-11 -43 -11 -63q0 -31 20.5 -48.5t55.5 -17.5q42 0 66 27.5t41 99.5z" />
    <glyph glyph-name="ugrave" unicode="&#xf9;" horiz-adv-x="854" 
d="M895 1040l-240 -1040h-247l18 76q-83 -96 -211 -96q-88 0 -138 44.5t-50 122.5q0 56 26 172l168 721h242l-172 -745q-10 -48 -10 -66q0 -75 73 -75q48 0 78 33t47 106l172 747h244zM719 1176h-176l-275 270h314z" />
    <glyph glyph-name="uacute" unicode="&#xfa;" horiz-adv-x="854" 
d="M895 1040l-240 -1040h-247l18 76q-83 -96 -211 -96q-88 0 -138 44.5t-50 122.5q0 56 26 172l168 721h242l-172 -745q-10 -48 -10 -66q0 -75 73 -75q48 0 78 33t47 106l172 747h244zM903 1446l-299 -270h-184l184 270h299z" />
    <glyph glyph-name="ucircumflex" unicode="&#xfb;" horiz-adv-x="854" 
d="M895 1040l-240 -1040h-247l18 76q-83 -96 -211 -96q-88 0 -138 44.5t-50 122.5q0 56 26 172l168 721h242l-172 -745q-10 -48 -10 -66q0 -75 73 -75q48 0 78 33t47 106l172 747h244zM881 1176h-205l-55 149l-134 -149h-225l240 270h264z" />
    <glyph glyph-name="udieresis" unicode="&#xfc;" horiz-adv-x="854" 
d="M895 1040l-240 -1040h-247l18 76q-83 -96 -211 -96q-88 0 -138 44.5t-50 122.5q0 56 26 172l168 721h242l-172 -745q-10 -48 -10 -66q0 -75 73 -75q48 0 78 33t47 106l172 747h244zM963 1464l-58 -245h-237l57 245h238zM559 1464l-57 -245h-240l57 245h240z" />
    <glyph glyph-name="yacute" unicode="&#xfd;" horiz-adv-x="724" 
d="M856 1040l-526 -1177q-36 -82 -73 -128t-95.5 -71.5t-145.5 -25.5q-82 0 -170 18l80 190q55 -14 86 -14q106 0 154 166q-25 927 -29 1042h238l-17 -669l254 669h244zM864 1446l-299 -270h-184l184 270h299z" />
    <glyph glyph-name="thorn" unicode="&#xfe;" horiz-adv-x="854" 
d="M322 1446h245l-118 -502q83 117 213 117q94 0 145 -49t51 -140q0 -51 -27 -170l-96 -419q-39 -171 -110.5 -238.5t-182.5 -67.5q-139 0 -190 113l-105 -450h-243zM498 297l92 408q12 52 12 77q0 34 -20.5 53t-57.5 19q-49 0 -79 -32.5t-50 -114.5l-94 -406q-8 -36 -8 -55
q0 -40 23.5 -62t64.5 -22q46 0 73 31t44 104z" />
    <glyph glyph-name="ydieresis" unicode="&#xff;" horiz-adv-x="724" 
d="M856 1040l-526 -1177q-36 -82 -73 -128t-95.5 -71.5t-145.5 -25.5q-82 0 -170 18l80 190q55 -14 86 -14q106 0 154 166q-25 927 -29 1042h238l-17 -669l254 669h244zM895 1464l-57 -245h-238l57 245h238zM492 1464l-58 -245h-239l57 245h240z" />
    <glyph glyph-name="Amacron" unicode="&#x100;" horiz-adv-x="894" 
d="M510 1446h305l-39 -1446h-262l16 236h-245l-90 -236h-275zM365 459h184l45 620zM1001 1743l-38 -166h-582l37 166h583z" />
    <glyph glyph-name="amacron" unicode="&#x101;" 
d="M657 0h-256q-12 17 -12 45q0 22 4 47q-84 -115 -209 -115q-86 0 -132 49.5t-46 143.5q0 103 30 195t79 141q32 32 87.5 62.5t94.5 45.5l233 91l13 49q12 52 12 75q0 66 -78 66q-49 0 -69.5 -32t-34.5 -105l-6 -31h-224l15 68q31 145 110 208.5t228 63.5q145 0 225 -51.5
t80 -145.5q0 -49 -29 -174l-102 -440q-4 -17 -11 -48.5t-9.5 -44.5t-6.5 -32.5t-5 -33t-1 -27.5q0 -41 20 -70zM418 221l65 285q-93 -38 -127.5 -59t-58.5 -52q-20 -27 -33.5 -73.5t-13.5 -85.5q0 -68 57 -68q39 0 111 53zM887 1382l-39 -165h-582l37 165h584z" />
    <glyph glyph-name="Abreve" unicode="&#x102;" horiz-adv-x="894" 
d="M510 1446h305l-39 -1446h-262l16 236h-245l-90 -236h-275zM365 459h184l45 620zM915 1864l117 -60q-58 -118 -146 -181.5t-200 -63.5q-122 0 -198 73t-91 195l135 33q12 -49 58.5 -84t118.5 -35q139 0 206 123z" />
    <glyph glyph-name="abreve" unicode="&#x103;" 
d="M657 0h-256q-12 17 -12 45q0 22 4 47q-84 -115 -209 -115q-86 0 -132 49.5t-46 143.5q0 103 30 195t79 141q32 32 87.5 62.5t94.5 45.5l233 91l13 49q12 52 12 75q0 66 -78 66q-49 0 -69.5 -32t-34.5 -105l-6 -31h-224l15 68q31 145 110 208.5t228 63.5q145 0 225 -51.5
t80 -145.5q0 -49 -29 -174l-102 -440q-4 -17 -11 -48.5t-9.5 -44.5t-6.5 -32.5t-5 -33t-1 -27.5q0 -41 20 -70zM418 221l65 285q-93 -38 -127.5 -59t-58.5 -52q-20 -27 -33.5 -73.5t-13.5 -85.5q0 -68 57 -68q39 0 111 53zM815 1509l115 -59q-130 -272 -359 -272
q-124 0 -199.5 78.5t-92.5 224.5l135 32q12 -69 60.5 -107t125.5 -38q75 0 126.5 34t88.5 107z" />
    <glyph glyph-name="Aogonek" unicode="&#x104;" horiz-adv-x="894" 
d="M510 1446h305l-39 -1446h-26q-65 -15 -121 -75.5t-56 -117.5q0 -33 20 -52t54 -19q47 0 121 39l-39 -133q-77 -31 -154 -31q-91 0 -147.5 44t-56.5 116q0 71 46.5 123t151.5 106h-55l16 236h-245l-90 -236h-275zM365 459h184l45 620z" />
    <glyph glyph-name="aogonek" unicode="&#x105;" 
d="M657 0h-53q-79 -24 -126.5 -85t-47.5 -108q0 -33 20 -52t54 -19q47 0 121 39l-39 -133q-77 -31 -154 -31q-91 0 -148 44t-57 116q0 71 45.5 121t151.5 108h-23q-12 17 -12 45q0 22 4 47q-84 -115 -209 -115q-86 0 -132 49.5t-46 143.5q0 103 30 195t79 141
q32 32 87.5 62.5t94.5 45.5l233 91l13 49q12 52 12 75q0 66 -78 66q-49 0 -69.5 -32t-34.5 -105l-6 -31h-224l15 68q31 145 110 208.5t228 63.5q145 0 225 -51.5t80 -145.5q0 -49 -29 -174l-102 -440q-4 -17 -11 -48.5t-9.5 -44.5t-6.5 -32.5t-5 -33t-1 -27.5q0 -41 20 -70z
M418 221l65 285q-93 -38 -127.5 -59t-58.5 -52q-20 -27 -33.5 -73.5t-13.5 -85.5q0 -68 57 -68q39 0 111 53z" />
    <glyph glyph-name="Cacute" unicode="&#x106;" horiz-adv-x="937" 
d="M1004 920h-263l33 147q19 81 19 104q0 101 -111 101q-64 0 -100 -36.5t-56 -121.5l-176 -758q-12 -59 -12 -88q0 -44 28.5 -68t82.5 -24q69 0 103.5 38t57.5 140l43 189h262l-38 -174q-26 -120 -62 -196.5t-92 -122t-127 -63.5t-176 -18q-189 0 -271.5 66t-82.5 194
q0 51 22 152l166 713q50 209 156 296t313 87q167 0 254.5 -59t87.5 -173q0 -55 -21 -147zM1108 1837l-295 -274h-188l166 274h317z" />
    <glyph glyph-name="cacute" unicode="&#x107;" 
d="M799 649h-240l23 92q12 54 12 80q0 34 -22 53t-60 19q-20 0 -34 -4t-31 -17.5t-31 -43.5t-25 -76l-100 -428q-17 -75 -17 -95q0 -32 24 -50.5t64 -18.5q46 0 70 28.5t43 104.5l29 121h239l-18 -82q-26 -116 -49.5 -172t-59.5 -94q-88 -91 -258 -91q-158 0 -238.5 60.5
t-80.5 177.5q0 51 18 137l90 398q18 79 48.5 138t65.5 93t81 54.5t86.5 27t89.5 6.5q152 0 235 -56.5t83 -160.5q0 -36 -19 -121zM922 1446l-299 -270h-185l185 270h299z" />
    <glyph glyph-name="Ccircumflex" unicode="&#x108;" horiz-adv-x="937" 
d="M1004 920h-263l33 147q19 81 19 104q0 101 -111 101q-64 0 -100 -36.5t-56 -121.5l-176 -758q-12 -59 -12 -88q0 -44 28.5 -68t82.5 -24q69 0 103.5 38t57.5 140l43 189h262l-38 -174q-26 -120 -62 -196.5t-92 -122t-127 -63.5t-176 -18q-189 0 -271.5 66t-82.5 194
q0 51 22 152l166 713q50 209 156 296t313 87q167 0 254.5 -59t87.5 -173q0 -55 -21 -147zM1067 1561h-203l-69 149l-119 -149h-225l225 272h264z" />
    <glyph glyph-name="ccircumflex" unicode="&#x109;" 
d="M799 649h-240l23 92q12 54 12 80q0 34 -22 53t-60 19q-20 0 -34 -4t-31 -17.5t-31 -43.5t-25 -76l-100 -428q-17 -75 -17 -95q0 -32 24 -50.5t64 -18.5q46 0 70 28.5t43 104.5l29 121h239l-18 -82q-26 -116 -49.5 -172t-59.5 -94q-88 -91 -258 -91q-158 0 -238.5 60.5
t-80.5 177.5q0 51 18 137l90 398q18 79 48.5 138t65.5 93t81 54.5t86.5 27t89.5 6.5q152 0 235 -56.5t83 -160.5q0 -36 -19 -121zM883 1176h-205l-55 149l-134 -149h-225l240 270h264z" />
    <glyph glyph-name="Cdotaccent" unicode="&#x10a;" horiz-adv-x="937" 
d="M1004 920h-263l33 147q19 81 19 104q0 101 -111 101q-64 0 -100 -36.5t-56 -121.5l-176 -758q-12 -59 -12 -88q0 -44 28.5 -68t82.5 -24q69 0 103.5 38t57.5 140l43 189h262l-38 -174q-26 -120 -62 -196.5t-92 -122t-127 -63.5t-176 -18q-189 0 -271.5 66t-82.5 194
q0 51 22 152l166 713q50 209 156 296t313 87q167 0 254.5 -59t87.5 -173q0 -55 -21 -147zM920 1808l-58 -247h-241l57 247h242z" />
    <glyph glyph-name="cdotaccent" unicode="&#x10b;" 
d="M799 649h-240l23 92q12 54 12 80q0 34 -22 53t-60 19q-20 0 -34 -4t-31 -17.5t-31 -43.5t-25 -76l-100 -428q-17 -75 -17 -95q0 -32 24 -50.5t64 -18.5q46 0 70 28.5t43 104.5l29 121h239l-18 -82q-26 -116 -49.5 -172t-59.5 -94q-88 -91 -258 -91q-158 0 -238.5 60.5
t-80.5 177.5q0 51 18 137l90 398q18 79 48.5 138t65.5 93t81 54.5t86.5 27t89.5 6.5q152 0 235 -56.5t83 -160.5q0 -36 -19 -121zM762 1464l-57 -245h-242l57 245h242z" />
    <glyph glyph-name="Ccaron" unicode="&#x10c;" horiz-adv-x="937" 
d="M1004 920h-263l33 147q19 81 19 104q0 101 -111 101q-64 0 -100 -36.5t-56 -121.5l-176 -758q-12 -59 -12 -88q0 -44 28.5 -68t82.5 -24q69 0 103.5 38t57.5 140l43 189h262l-38 -174q-26 -120 -62 -196.5t-92 -122t-127 -63.5t-176 -18q-189 0 -271.5 66t-82.5 194
q0 51 22 152l166 713q50 209 156 296t313 87q167 0 254.5 -59t87.5 -173q0 -55 -21 -147zM1106 1831l-225 -272h-265l-127 272h203l70 -150l119 150h225z" />
    <glyph glyph-name="ccaron" unicode="&#x10d;" 
d="M799 649h-240l23 92q12 54 12 80q0 34 -22 53t-60 19q-20 0 -34 -4t-31 -17.5t-31 -43.5t-25 -76l-100 -428q-17 -75 -17 -95q0 -32 24 -50.5t64 -18.5q46 0 70 28.5t43 104.5l29 121h239l-18 -82q-26 -116 -49.5 -172t-59.5 -94q-88 -91 -258 -91q-158 0 -238.5 60.5
t-80.5 177.5q0 51 18 137l90 398q18 79 48.5 138t65.5 93t81 54.5t86.5 27t89.5 6.5q152 0 235 -56.5t83 -160.5q0 -36 -19 -121zM940 1448l-238 -270h-264l-116 270h206l56 -150l133 150h223z" />
    <glyph glyph-name="Dcaron" unicode="&#x10e;" horiz-adv-x="980" 
d="M334 1446h403q162 0 241 -62.5t79 -191.5q0 -57 -31 -186l-154 -664q-28 -119 -74 -191t-130.5 -111.5t-214.5 -39.5h-453zM551 1235l-236 -1024h95q105 0 143.5 31.5t64.5 144.5l156 676q12 55 12 80q0 51 -32 71.5t-115 20.5h-88zM1047 1831l-226 -272h-264l-127 272
h203l69 -150l119 150h226z" />
    <glyph glyph-name="dcaron" unicode="&#x10f;" horiz-adv-x="854" 
d="M991 1446l-334 -1446h-245l24 96q-83 -116 -213 -116q-94 0 -145 49.5t-51 138.5q0 56 26 170l109 471q26 114 99 184t181 70q140 0 191 -113l115 496h243zM489 334l95 405q8 36 8 56q0 40 -23.5 62t-66.5 22q-44 0 -71 -31.5t-44 -104.5l-92 -405q-12 -54 -12 -80
q0 -34 20 -53t57 -19q49 0 79 33t50 115zM1077 1108h-82l72 127h-76l49 211h207l-49 -211z" />
    <glyph glyph-name="Dcroat" unicode="&#x110;" horiz-adv-x="980" 
d="M334 1446h403q162 0 241 -62.5t79 -191.5q0 -57 -31 -186l-158 -680q-19 -80 -49.5 -138t-68 -94t-89 -57.5t-105.5 -29t-124 -7.5h-432l188 803h-118l36 153h117zM551 1235l-62 -279h156l-35 -153h-155l-140 -592h95q53 0 84 6t56 25.5t40 53t28 91.5l156 676
q12 55 12 80q0 51 -32 71.5t-115 20.5h-88z" />
    <glyph glyph-name="dcroat" unicode="&#x111;" horiz-adv-x="854" 
d="M928 1169l-271 -1169h-245l24 96q-83 -116 -213 -116q-94 0 -145 49.5t-51 138.5q0 56 26 170l109 471q26 114 99 184t181 70q140 0 191 -113l51 219h-235l36 162h236l27 115h243l-26 -115h88l-37 -162h-88zM489 334l95 405q8 36 8 56q0 40 -23.5 62t-66.5 22
q-44 0 -71 -31.5t-44 -104.5l-92 -405q-12 -54 -12 -80q0 -34 20 -53t57 -19q49 0 79 33t50 115z" />
    <glyph glyph-name="Emacron" unicode="&#x112;" horiz-adv-x="854" 
d="M1034 1446l-51 -219h-434l-78 -340h410l-52 -219h-409l-103 -445h455l-51 -223h-721l334 1446h700zM1014 1743l-39 -166h-582l37 166h584z" />
    <glyph glyph-name="emacron" unicode="&#x113;" 
d="M743 471h-415l-45 -207q-4 -20 -4 -33q0 -69 77 -69q41 0 65.5 26t37.5 86l16 70h236l-9 -39q-35 -171 -114.5 -249.5t-243.5 -78.5q-149 0 -226 61t-77 179q0 61 33 205l76 342q15 71 41 122.5t68.5 93t108.5 62.5t154 21q143 0 218 -59.5t75 -174.5q0 -51 -22 -145z
M541 637l26 125q8 36 8 53q0 68 -73 68q-43 0 -66 -24t-37 -81l-32 -141h174zM887 1382l-39 -165h-582l37 165h584z" />
    <glyph glyph-name="Ebreve" unicode="&#x114;" horiz-adv-x="854" 
d="M1034 1446l-51 -219h-434l-78 -340h410l-52 -219h-409l-103 -445h455l-51 -223h-721l334 1446h700zM930 1858l117 -60q-58 -118 -146.5 -182t-200.5 -64q-122 0 -197.5 73.5t-90.5 195.5l135 32q12 -49 58 -83.5t118 -34.5q140 0 207 123z" />
    <glyph glyph-name="ebreve" unicode="&#x115;" 
d="M743 471h-415l-45 -207q-4 -20 -4 -33q0 -69 77 -69q41 0 65.5 26t37.5 86l16 70h236l-9 -39q-35 -171 -114.5 -249.5t-243.5 -78.5q-149 0 -226 61t-77 179q0 61 33 205l76 342q15 71 41 122.5t68.5 93t108.5 62.5t154 21q143 0 218 -59.5t75 -174.5q0 -51 -22 -145z
M541 637l26 125q8 36 8 53q0 68 -73 68q-43 0 -66 -24t-37 -81l-32 -141h174zM823 1509l115 -59q-130 -272 -358 -272q-124 0 -200 78.5t-93 224.5l135 32q12 -69 60.5 -107t125.5 -38q75 0 126.5 34t88.5 107z" />
    <glyph glyph-name="Edotaccent" unicode="&#x116;" horiz-adv-x="854" 
d="M1034 1446l-51 -219h-434l-78 -340h410l-52 -219h-409l-103 -445h455l-51 -223h-721l334 1446h700zM858 1808l-57 -247h-242l57 247h242z" />
    <glyph glyph-name="edotaccent" unicode="&#x117;" 
d="M743 471h-415l-45 -207q-4 -20 -4 -33q0 -69 77 -69q41 0 65.5 26t37.5 86l16 70h236l-9 -39q-35 -171 -114.5 -249.5t-243.5 -78.5q-149 0 -226 61t-77 179q0 61 33 205l76 342q15 71 41 122.5t68.5 93t108.5 62.5t154 21q143 0 218 -59.5t75 -174.5q0 -51 -22 -145z
M541 637l26 125q8 36 8 53q0 68 -73 68q-43 0 -66 -24t-37 -81l-32 -141h174zM733 1464l-57 -245h-242l58 245h241z" />
    <glyph glyph-name="Eogonek" unicode="&#x118;" horiz-adv-x="854" 
d="M1034 1446l-51 -219h-434l-78 -340h410l-52 -219h-409l-103 -445h455l-51 -223h-45q-65 -13 -120.5 -75.5t-55.5 -117.5q0 -34 19.5 -52.5t53.5 -18.5q47 0 121 39l-39 -133q-77 -31 -153 -31q-91 0 -148 44t-57 116q0 71 45.5 121t151.5 108h-494l334 1446h700z" />
    <glyph glyph-name="eogonek" unicode="&#x119;" 
d="M743 471h-415l-45 -207q-4 -20 -4 -33q0 -69 77 -69q41 0 65.5 26t37.5 86l16 70h236l-9 -39q-26 -124 -64 -187t-112 -106q-81 -46 -123.5 -103.5t-42.5 -101.5q0 -33 20 -52t54 -19q47 0 121 39l-39 -133q-77 -31 -154 -31q-91 0 -147.5 44t-56.5 116q0 64 36.5 110.5
t120.5 95.5q-274 12 -274 240q0 61 33 205l76 342q15 71 41 122.5t68.5 93t108.5 62.5t154 21q143 0 218 -59.5t75 -174.5q0 -51 -22 -145zM541 637l26 125q8 36 8 53q0 68 -73 68q-43 0 -66 -24t-37 -81l-32 -141h174z" />
    <glyph glyph-name="Ecaron" unicode="&#x11a;" horiz-adv-x="854" 
d="M1034 1446l-51 -219h-434l-78 -340h410l-52 -219h-409l-103 -445h455l-51 -223h-721l334 1446h700zM1040 1831l-225 -272h-264l-127 272h203l69 -150l119 150h225z" />
    <glyph glyph-name="ecaron" unicode="&#x11b;" 
d="M743 471h-415l-45 -207q-4 -20 -4 -33q0 -69 77 -69q41 0 65.5 26t37.5 86l16 70h236l-9 -39q-35 -171 -114.5 -249.5t-243.5 -78.5q-149 0 -226 61t-77 179q0 61 33 205l76 342q15 71 41 122.5t68.5 93t108.5 62.5t154 21q143 0 218 -59.5t75 -174.5q0 -51 -22 -145z
M541 637l26 125q8 36 8 53q0 68 -73 68q-43 0 -66 -24t-37 -81l-32 -141h174zM909 1448l-237 -270h-264l-117 270h207l55 -150l133 150h223z" />
    <glyph glyph-name="Gcircumflex" unicode="&#x11c;" horiz-adv-x="999" 
d="M1008 979h-265l31 139q8 40 8 56q0 94 -114 94q-69 0 -103 -39.5t-59 -147.5l-166 -721q-14 -66 -14 -88q0 -44 29.5 -70t80.5 -26q65 0 102.5 38.5t57.5 127.5l51 225h-164l52 217h430l-183 -784h-227l20 86q-105 -117 -268 -117q-123 0 -190.5 61.5t-67.5 174.5
q0 69 21 160l168 722q51 216 154.5 303t309.5 87q177 0 269 -58t92 -168q0 -36 -19 -114zM1051 1561h-203l-70 149l-119 -149h-225l225 272h265z" />
    <glyph glyph-name="gcircumflex" unicode="&#x11d;" horiz-adv-x="854" 
d="M655 1040h246l-237 -1036q-15 -67 -29 -112.5t-36 -92.5t-50.5 -76t-68.5 -53t-94.5 -34.5t-125.5 -10.5q-151 0 -229 53.5t-78 157.5q0 32 10 78h242q-8 -31 -8 -41q0 -31 24 -49.5t62 -18.5q54 0 79.5 32t45.5 124l24 113q-36 -45 -81.5 -65.5t-112.5 -20.5
q-100 0 -156.5 48.5t-56.5 133.5q0 36 22 141l105 455q32 141 101.5 218t197.5 77q132 0 186 -105zM485 309l97 422q8 31 8 60q0 41 -22.5 63.5t-63.5 22.5q-46 0 -73 -29.5t-42 -97.5l-94 -410q-14 -66 -14 -82q0 -37 22 -57.5t62 -20.5q91 0 120 129zM870 1176h-204
l-56 149l-133 -149h-225l240 270h264z" />
    <glyph glyph-name="Gbreve" unicode="&#x11e;" horiz-adv-x="999" 
d="M1008 979h-265l31 139q8 40 8 56q0 94 -114 94q-69 0 -103 -39.5t-59 -147.5l-166 -721q-14 -66 -14 -88q0 -44 29.5 -70t80.5 -26q65 0 102.5 38.5t57.5 127.5l51 225h-164l52 217h430l-183 -784h-227l20 86q-105 -117 -268 -117q-123 0 -190.5 61.5t-67.5 174.5
q0 69 21 160l168 722q51 216 154.5 303t309.5 87q177 0 269 -58t92 -168q0 -36 -19 -114zM973 1864l117 -60q-58 -118 -146.5 -181.5t-200.5 -63.5q-122 0 -197.5 73t-90.5 195l135 33q12 -49 58 -84t118 -35q140 0 207 123z" />
    <glyph glyph-name="gbreve" unicode="&#x11f;" horiz-adv-x="854" 
d="M655 1040h246l-237 -1036q-15 -67 -29 -112.5t-36 -92.5t-50.5 -76t-68.5 -53t-94.5 -34.5t-125.5 -10.5q-151 0 -229 53.5t-78 157.5q0 32 10 78h242q-8 -31 -8 -41q0 -31 24 -49.5t62 -18.5q54 0 79.5 32t45.5 124l24 113q-36 -45 -81.5 -65.5t-112.5 -20.5
q-100 0 -156.5 48.5t-56.5 133.5q0 36 22 141l105 455q32 141 101.5 218t197.5 77q132 0 186 -105zM485 309l97 422q8 31 8 60q0 41 -22.5 63.5t-63.5 22.5q-46 0 -73 -29.5t-42 -97.5l-94 -410q-14 -66 -14 -82q0 -37 22 -57.5t62 -20.5q91 0 120 129zM840 1509l114 -59
q-130 -272 -358 -272q-124 0 -200 78.5t-93 224.5l135 32q12 -69 61 -107t126 -38q75 0 126.5 34t88.5 107z" />
    <glyph glyph-name="Gdotaccent" unicode="&#x120;" horiz-adv-x="999" 
d="M1008 979h-265l31 139q8 40 8 56q0 94 -114 94q-69 0 -103 -39.5t-59 -147.5l-166 -721q-14 -66 -14 -88q0 -44 29.5 -70t80.5 -26q65 0 102.5 38.5t57.5 127.5l51 225h-164l52 217h430l-183 -784h-227l20 86q-105 -117 -268 -117q-123 0 -190.5 61.5t-67.5 174.5
q0 69 21 160l168 722q51 216 154.5 303t309.5 87q177 0 269 -58t92 -168q0 -36 -19 -114zM905 1808l-57 -247h-242l58 247h241z" />
    <glyph glyph-name="gdotaccent" unicode="&#x121;" horiz-adv-x="854" 
d="M655 1040h246l-237 -1036q-15 -67 -29 -112.5t-36 -92.5t-50.5 -76t-68.5 -53t-94.5 -34.5t-125.5 -10.5q-151 0 -229 53.5t-78 157.5q0 32 10 78h242q-8 -31 -8 -41q0 -31 24 -49.5t62 -18.5q54 0 79.5 32t45.5 124l24 113q-36 -45 -81.5 -65.5t-112.5 -20.5
q-100 0 -156.5 48.5t-56.5 133.5q0 36 22 141l105 455q32 141 101.5 218t197.5 77q132 0 186 -105zM485 309l97 422q8 31 8 60q0 41 -22.5 63.5t-63.5 22.5q-46 0 -73 -29.5t-42 -97.5l-94 -410q-14 -66 -14 -82q0 -37 22 -57.5t62 -20.5q91 0 120 129zM752 1464l-58 -245
h-241l57 245h242z" />
    <glyph glyph-name="Gcommaaccent" unicode="&#x122;" horiz-adv-x="999" 
d="M1008 979h-265l31 139q8 40 8 56q0 94 -114 94q-69 0 -103 -39.5t-59 -147.5l-166 -721q-14 -66 -14 -88q0 -44 29.5 -70t80.5 -26q65 0 102.5 38.5t57.5 127.5l51 225h-164l52 217h430l-183 -784h-227l20 86q-105 -117 -268 -117q-123 0 -190.5 61.5t-67.5 174.5
q0 69 21 160l168 722q51 216 154.5 303t309.5 87q177 0 269 -58t92 -168q0 -36 -19 -114zM328 -367h-74l65 115h-67l41 180h186l-41 -180z" />
    <glyph glyph-name="gcommaaccent" unicode="&#x123;" horiz-adv-x="854" 
d="M655 1040h246l-237 -1036q-15 -67 -29 -112.5t-36 -92.5t-50.5 -76t-68.5 -53t-94.5 -34.5t-125.5 -10.5q-151 0 -229 53.5t-78 157.5q0 32 10 78h242q-8 -31 -8 -41q0 -31 24 -49.5t62 -18.5q54 0 79.5 32t45.5 124l24 113q-36 -45 -81.5 -65.5t-112.5 -20.5
q-100 0 -156.5 48.5t-56.5 133.5q0 36 22 141l105 455q32 141 101.5 218t197.5 77q132 0 186 -105zM485 309l97 422q8 31 8 60q0 41 -22.5 63.5t-63.5 22.5q-46 0 -73 -29.5t-42 -97.5l-94 -410q-14 -66 -14 -82q0 -37 22 -57.5t62 -20.5q91 0 120 129zM623 1470h73
l-65 -114h67l-41 -180h-186l41 180z" />
    <glyph glyph-name="Hcircumflex" unicode="&#x124;" horiz-adv-x="980" 
d="M1110 1446l-334 -1446h-266l152 662h-244l-152 -662h-266l334 1446h266l-131 -567h244l131 567h266zM1067 1561h-203l-69 149l-119 -149h-225l225 272h264z" />
    <glyph glyph-name="hcircumflex" unicode="&#x125;" horiz-adv-x="854" 
d="M322 1446h247l-112 -481q86 96 213 96q88 0 138 -45t50 -123q0 -43 -29 -172l-165 -721h-242l172 745q10 48 10 66q0 37 -19.5 56.5t-54.5 19.5q-49 0 -78 -32.5t-46 -106.5l-173 -748h-243zM748 1561h-203l-70 149l-119 -149h-225l225 272h265z" />
    <glyph glyph-name="Hbar" unicode="&#x126;" horiz-adv-x="980" 
d="M154 1071l45 201h94l41 174h266l-41 -174h244l41 174h266l-41 -174h96l-45 -201h-98l-246 -1071h-266l152 662h-244l-152 -662h-266l246 1071h-92zM469 879h244l43 192h-244z" />
    <glyph glyph-name="hbar" unicode="&#x127;" horiz-adv-x="854" 
d="M739 1169h-235l-47 -204q86 96 213 96q88 0 138 -45t50 -123q0 -43 -29 -172l-165 -721h-242l172 745q10 48 10 66q0 37 -19.5 56.5t-54.5 19.5q-49 0 -78 -32.5t-46 -106.5l-173 -748h-243l268 1169h-86l37 162h86l27 115h247l-26 -115h233z" />
    <glyph glyph-name="Itilde" unicode="&#x128;" horiz-adv-x="466" 
d="M598 1446l-334 -1446h-264l334 1446h264zM725 1815h125q-33 -138 -81.5 -199.5t-127.5 -61.5q-51 0 -127 39l-61 31q-49 25 -76 25q-65 0 -92 -86h-138q33 130 87.5 192t142.5 62q45 0 117 -31l88 -41q40 -19 61 -19q28 0 45 18.5t37 70.5z" />
    <glyph glyph-name="itilde" unicode="&#x129;" horiz-adv-x="425" 
d="M475 1040l-239 -1040h-246l239 1040h246zM612 1430h123q-28 -132 -76.5 -195.5t-123.5 -63.5q-45 0 -129 45.5t-123 45.5q-31 0 -52 -19.5t-41 -66.5h-122q26 121 86 188.5t141 67.5q42 0 91 -22t89.5 -44.5t61.5 -22.5q26 0 43 19.5t32 67.5z" />
    <glyph glyph-name="uni012A" unicode="&#x12a;" horiz-adv-x="466" 
d="M598 1446l-334 -1446h-264l334 1446h264zM754 1741l-41 -164h-467l39 164h469z" />
    <glyph glyph-name="imacron" unicode="&#x12b;" horiz-adv-x="425" 
d="M475 1040l-239 -1040h-246l239 1040h246zM659 1382l-41 -165h-466l38 165h469z" />
    <glyph glyph-name="Ibreve" unicode="&#x12c;" horiz-adv-x="466" 
d="M598 1446l-334 -1446h-264l334 1446h264zM725 1864l117 -60q-58 -118 -146 -181.5t-200 -63.5q-122 0 -198 73t-91 195l135 33q12 -49 58 -84t118 -35q140 0 207 123z" />
    <glyph glyph-name="uni012D" unicode="&#x12d;" horiz-adv-x="425" 
d="M475 1040l-239 -1040h-246l239 1040h246zM629 1509l114 -59q-130 -272 -358 -272q-124 0 -200 78.5t-93 224.5l135 32q12 -69 61 -107t126 -38q75 0 126.5 34t88.5 107z" />
    <glyph glyph-name="Iogonek" unicode="&#x12e;" horiz-adv-x="466" 
d="M598 1446l-334 -1446q-80 -27 -126 -86.5t-46 -106.5q0 -33 20 -52t54 -19q47 0 121 39l-39 -133q-77 -31 -154 -31q-91 0 -148 44t-57 116q0 71 45.5 121t151.5 108h-86l334 1446h264z" />
    <glyph glyph-name="iogonek" unicode="&#x12f;" horiz-adv-x="425" 
d="M475 1040l-239 -1040q-72 -24 -119 -85.5t-47 -107.5q0 -34 19.5 -52.5t53.5 -18.5q47 0 121 39l-39 -133q-77 -31 -153 -31q-91 0 -148 44t-57 116q0 71 45 121t151 108h-73l239 1040h246zM569 1446l-57 -246h-246l58 246h245z" />
    <glyph glyph-name="Idotaccent" unicode="&#x130;" horiz-adv-x="466" 
d="M598 1446l-334 -1446h-264l334 1446h264zM659 1808l-57 -247h-242l58 247h241z" />
    <glyph glyph-name="dotlessi" unicode="&#x131;" horiz-adv-x="425" 
d="M475 1040l-239 -1040h-246l239 1040h246z" />
    <glyph glyph-name="IJ" unicode="&#x132;" horiz-adv-x="1277" 
d="M598 1446l-334 -1446h-264l334 1446h264zM1417 1446l-258 -1118q-47 -203 -137.5 -282t-269.5 -79q-154 0 -234 61.5t-80 178.5q0 55 19 135l26 117h248l-29 -123q-14 -64 -14 -88q0 -31 21 -49.5t59 -18.5q51 0 77 32t46 118l258 1116h268z" />
    <glyph glyph-name="ij" unicode="&#x133;" horiz-adv-x="851" 
d="M569 1446l-57 -246h-246l58 246h245zM475 1040l-239 -1040h-246l239 1040h246zM991 1446l-57 -244h-244l58 244h243zM897 1040l-262 -1138q-33 -141 -105.5 -202.5t-210.5 -61.5q-41 0 -96 6l47 202q40 0 65 7t38.5 25t18 31t11.5 44l250 1087h244z" />
    <glyph glyph-name="Jcircumflex" unicode="&#x134;" 
d="M950 1446l-258 -1118q-47 -203 -137.5 -282t-269.5 -79q-154 0 -234 61.5t-80 178.5q0 55 19 135l26 117h248l-28 -123q-15 -69 -15 -88q0 -31 21 -49.5t59 -18.5q51 0 77 32t46 118l258 1116h268zM1133 1561h-203l-70 149l-119 -149h-225l225 272h265z" />
    <glyph glyph-name="jcircumflex" unicode="&#x135;" horiz-adv-x="425" 
d="M471 1040l-262 -1138q-33 -141 -105 -202.5t-210 -61.5q-42 0 -97 6l47 202q40 0 65 7t38.5 25t18 31t11.5 44l250 1087h244zM653 1176h-204l-56 149l-133 -149h-225l239 270h265z" />
    <glyph glyph-name="Kcommaaccent" unicode="&#x136;" horiz-adv-x="937" 
d="M1159 1446l-477 -645l160 -801h-281l-127 707l-164 -707h-270l334 1446h270l-131 -563l404 563h282zM354 -367h-73l65 115h-67l40 180h187l-41 -180z" />
    <glyph glyph-name="kcommaaccent" unicode="&#x137;" 
d="M930 1040l-359 -434l170 -606h-264l-123 535l-123 -535h-241l334 1446h241l-174 -756l268 350h271zM270 -367h-73l65 115h-67l41 180h186l-41 -180z" />
    <glyph glyph-name="kgreenlandic" unicode="&#x138;" 
d="M930 1040l-359 -434l170 -606h-264l-123 535l-123 -535h-241l241 1040h242l-82 -350l268 350h271z" />
    <glyph glyph-name="Lacute" unicode="&#x139;" horiz-adv-x="768" 
d="M709 219l-52 -219h-657l334 1446h266l-283 -1227h392zM866 1837l-295 -274h-188l166 274h317z" />
    <glyph glyph-name="lacute" unicode="&#x13a;" horiz-adv-x="425" 
d="M569 1446l-333 -1446h-246l334 1446h245zM838 1837l-295 -274h-189l166 274h318z" />
    <glyph glyph-name="Lcommaaccent" unicode="&#x13b;" horiz-adv-x="768" 
d="M709 219l-52 -219h-657l334 1446h266l-283 -1227h392zM266 -367h-73l65 115h-68l41 180h187l-41 -180z" />
    <glyph glyph-name="lcommaaccent" unicode="&#x13c;" horiz-adv-x="425" 
d="M569 1446l-333 -1446h-246l334 1446h245zM41 -367h-74l66 115h-68l41 180h187l-41 -180z" />
    <glyph glyph-name="Lcaron" unicode="&#x13d;" horiz-adv-x="768" 
d="M709 219l-52 -219h-657l334 1446h266l-283 -1227h392zM688 1108h-82l72 127h-76l49 211h207l-49 -211z" />
    <glyph glyph-name="lcaron" unicode="&#x13e;" horiz-adv-x="425" 
d="M569 1446l-333 -1446h-246l334 1446h245zM655 1108h-82l72 127h-76l49 211h207l-49 -211z" />
    <glyph glyph-name="Ldot" unicode="&#x13f;" horiz-adv-x="768" 
d="M709 219l-52 -219h-657l334 1446h266l-283 -1227h392zM778 641h-254l64 277h254z" />
    <glyph glyph-name="ldot" unicode="&#x140;" horiz-adv-x="604" 
d="M569 1446l-333 -1446h-246l334 1446h245zM672 616h-230l62 271h229z" />
    <glyph glyph-name="Lslash" unicode="&#x141;" horiz-adv-x="768" 
d="M743 1202l-63 -276l-258 -250l-105 -457h392l-52 -219h-657l96 416l-137 -133l61 276l138 129l176 758h266l-115 -492z" />
    <glyph glyph-name="lslash" unicode="&#x142;" horiz-adv-x="425" 
d="M590 1124l-53 -229l-123 -123l-178 -772h-246l125 539l-125 -129l53 229l125 127l156 680h245l-102 -442z" />
    <glyph glyph-name="Nacute" unicode="&#x143;" horiz-adv-x="1024" 
d="M1153 1446l-334 -1446h-336l-6 1083l-227 -1083h-250l334 1446h342l14 -1061l219 1061h244zM1104 1837l-295 -274h-188l165 274h318z" />
    <glyph glyph-name="nacute" unicode="&#x144;" horiz-adv-x="854" 
d="M229 1040h248l-20 -75q86 96 213 96q88 0 138 -45t50 -123q0 -43 -29 -172l-165 -721h-242l172 745q10 48 10 66q0 37 -19.5 56.5t-54.5 19.5q-49 0 -78 -32.5t-46 -106.5l-173 -748h-243zM930 1446l-299 -270h-185l185 270h299z" />
    <glyph glyph-name="Ncommaaccent" unicode="&#x145;" horiz-adv-x="1024" 
d="M1153 1446l-334 -1446h-336l-6 1083l-227 -1083h-250l334 1446h342l14 -1061l219 1061h244zM362 -367h-73l65 115h-67l41 180h186l-41 -180z" />
    <glyph glyph-name="ncommaaccent" unicode="&#x146;" horiz-adv-x="854" 
d="M229 1040h248l-20 -75q86 96 213 96q88 0 138 -45t50 -123q0 -43 -29 -172l-165 -721h-242l172 745q10 48 10 66q0 37 -19.5 56.5t-54.5 19.5q-49 0 -78 -32.5t-46 -106.5l-173 -748h-243zM262 -367h-74l66 115h-68l41 180h187l-41 -180z" />
    <glyph glyph-name="Ncaron" unicode="&#x147;" horiz-adv-x="1024" 
d="M1153 1446l-334 -1446h-336l-6 1083l-227 -1083h-250l334 1446h342l14 -1061l219 1061h244zM1110 1831l-225 -272h-264l-127 272h202l70 -150l119 150h225z" />
    <glyph glyph-name="ncaron" unicode="&#x148;" horiz-adv-x="854" 
d="M229 1040h248l-20 -75q86 96 213 96q88 0 138 -45t50 -123q0 -43 -29 -172l-165 -721h-242l172 745q10 48 10 66q0 37 -19.5 56.5t-54.5 19.5q-49 0 -78 -32.5t-46 -106.5l-173 -748h-243zM952 1448l-237 -270h-264l-117 270h207l55 -150l133 150h223z" />
    <glyph glyph-name="napostrophe" unicode="&#x149;" horiz-adv-x="854" 
d="M229 1040h248l-20 -75q86 96 213 96q88 0 138 -45t50 -123q0 -43 -29 -172l-165 -721h-242l172 745q10 48 10 66q0 37 -19.5 56.5t-54.5 19.5q-49 0 -78 -32.5t-46 -106.5l-173 -748h-243zM174 1108h-82l72 127h-76l49 211h207l-49 -211z" />
    <glyph glyph-name="Eng" unicode="&#x14a;" horiz-adv-x="1024" 
d="M561 -63q0 80 -21 366.5t-42 532.5l-21 247l-227 -1083h-250l334 1446h342q1 -81 14 -299.5t26 -396.5l13 -179l180 875h244l-352 -1526q-13 -55 -26.5 -92t-36.5 -72t-55 -55.5t-80.5 -32.5t-113.5 -12q-55 0 -100 6l49 207q16 -4 47 -4t48.5 16t27.5 56z" />
    <glyph glyph-name="eng" unicode="&#x14b;" horiz-adv-x="854" 
d="M233 0h-243l239 1040h248l-20 -75q86 96 213 96q88 0 138 -45t50 -123q0 -43 -29 -172l-182 -795q-12 -50 -22.5 -82t-33 -70t-53 -60t-81 -37t-117.5 -15q-48 0 -92 6l45 197q14 -2 41 -2q33 0 52 24t34 88l174 770q10 48 10 66q0 37 -19.5 56.5t-54.5 19.5
q-49 0 -78 -32.5t-46 -106.5z" />
    <glyph glyph-name="Omacron" unicode="&#x14c;" horiz-adv-x="980" 
d="M1030 1057l-162 -705q-16 -71 -35 -122.5t-53 -103.5t-79 -84.5t-115 -52.5t-160 -20q-367 0 -367 283q0 61 25 172l154 659q34 146 84.5 230t136.5 125t221 41q178 0 274.5 -73t96.5 -208q0 -45 -21 -141zM604 369l164 704q14 59 14 101q0 49 -30 75.5t-84 26.5
q-69 0 -102 -36.5t-60 -154.5l-160 -692q-20 -90 -20 -114q0 -101 120 -101q33 0 57.5 10t39 23t27 42.5t18.5 50.5t16 65zM1055 1743l-39 -166h-582l37 166h584z" />
    <glyph glyph-name="omacron" unicode="&#x14d;" 
d="M801 741l-105 -454q-37 -163 -121 -237.5t-233 -74.5q-150 0 -229.5 61t-79.5 175q0 42 16 113l103 440q37 155 126 229t238 74q139 0 218 -59.5t79 -163.5q0 -44 -12 -103zM451 266l110 486q14 57 14 84q0 32 -18.5 49.5t-52.5 17.5q-50 0 -70 -29t-41 -122l-110 -478
q-11 -45 -11 -63q0 -31 20 -48.5t54 -17.5q43 0 66.5 26.5t38.5 94.5zM895 1382l-39 -165h-582l37 165h584z" />
    <glyph glyph-name="Obreve" unicode="&#x14e;" horiz-adv-x="980" 
d="M1030 1057l-162 -705q-16 -71 -35 -122.5t-53 -103.5t-79 -84.5t-115 -52.5t-160 -20q-367 0 -367 283q0 61 25 172l154 659q34 146 84.5 230t136.5 125t221 41q178 0 274.5 -73t96.5 -208q0 -45 -21 -141zM604 369l164 704q14 59 14 101q0 49 -30 75.5t-84 26.5
q-69 0 -102 -36.5t-60 -154.5l-160 -692q-20 -90 -20 -114q0 -101 120 -101q33 0 57.5 10t39 23t27 42.5t18.5 50.5t16 65zM989 1864l117 -60q-58 -118 -146 -181.5t-200 -63.5q-122 0 -198 73t-91 195l135 33q12 -49 58 -84t118 -35q140 0 207 123z" />
    <glyph glyph-name="obreve" unicode="&#x14f;" 
d="M801 741l-105 -454q-37 -163 -121 -237.5t-233 -74.5q-150 0 -229.5 61t-79.5 175q0 42 16 113l103 440q37 155 126 229t238 74q139 0 218 -59.5t79 -163.5q0 -44 -12 -103zM451 266l110 486q14 57 14 84q0 32 -18.5 49.5t-52.5 17.5q-50 0 -70 -29t-41 -122l-110 -478
q-11 -45 -11 -63q0 -31 20 -48.5t54 -17.5q43 0 66.5 26.5t38.5 94.5zM819 1509l115 -59q-130 -272 -359 -272q-124 0 -199.5 78.5t-92.5 224.5l135 32q12 -69 60.5 -107t125.5 -38q75 0 126.5 34t88.5 107z" />
    <glyph glyph-name="Ohungarumlaut" unicode="&#x150;" horiz-adv-x="980" 
d="M1030 1057l-162 -705q-16 -71 -35 -122.5t-53 -103.5t-79 -84.5t-115 -52.5t-160 -20q-367 0 -367 283q0 61 25 172l154 659q34 146 84.5 230t136.5 125t221 41q178 0 274.5 -73t96.5 -208q0 -45 -21 -141zM604 369l164 704q14 59 14 101q0 49 -30 75.5t-84 26.5
q-69 0 -102 -36.5t-60 -154.5l-160 -692q-20 -90 -20 -114q0 -101 120 -101q33 0 57.5 10t39 23t27 42.5t18.5 50.5t16 65zM1249 1837l-295 -274h-149l182 274h262zM918 1837l-295 -274h-150l182 274h263z" />
    <glyph glyph-name="ohungarumlaut" unicode="&#x151;" 
d="M801 741l-105 -454q-37 -163 -121 -237.5t-233 -74.5q-150 0 -229.5 61t-79.5 175q0 42 16 113l103 440q37 155 126 229t238 74q139 0 218 -59.5t79 -163.5q0 -44 -12 -103zM451 266l110 486q14 57 14 84q0 32 -18.5 49.5t-52.5 17.5q-50 0 -70 -29t-41 -122l-110 -478
q-11 -45 -11 -63q0 -31 20 -48.5t54 -17.5q43 0 66.5 26.5t38.5 94.5zM1063 1446l-297 -270h-150l199 270h248zM741 1446l-297 -270h-147l199 270h245z" />
    <glyph glyph-name="OE" unicode="&#x152;" horiz-adv-x="1409" 
d="M1542 1446l-53 -223h-422l-78 -338h416l-49 -213h-416l-102 -445h473l-54 -227h-624l14 70q-59 -53 -126 -77t-156 -24q-145 0 -229.5 69t-84.5 187q0 52 37 209l148 639q51 219 146.5 311.5t272.5 92.5q104 0 169 -27.5t122 -93.5l21 90h575zM598 350l160 699
q22 104 22 127q0 45 -30 70.5t-84 25.5q-47 0 -73.5 -14.5t-49 -61t-43.5 -141.5l-158 -686q-14 -62 -14 -86q0 -48 30 -73.5t88 -25.5q64 0 98 37.5t54 128.5z" />
    <glyph glyph-name="oe" unicode="&#x153;" horiz-adv-x="1214" 
d="M1147 467h-416l-37 -158q-14 -64 -14 -86q0 -32 20 -49.5t56 -17.5q41 0 65 25.5t39 86.5l19 72h235l-8 -39q-24 -113 -63 -182t-112.5 -107.5t-185.5 -38.5q-74 0 -119.5 12.5t-86.5 41.5q-93 -52 -201 -52q-146 0 -225.5 61.5t-79.5 174.5q0 42 16 113l103 440
q37 156 125.5 229.5t238.5 73.5q125 0 203 -59q90 53 211 53q141 0 215 -61t74 -175q0 -44 -23 -145zM944 635l27 121q8 39 8 53q0 32 -19.5 50t-56.5 18q-41 0 -65.5 -25t-36.5 -80l-31 -137h174zM451 264l112 484q15 62 15 86q0 32 -19.5 49.5t-54.5 17.5q-47 0 -68.5 -30
t-36.5 -95l-116 -504q-11 -45 -11 -65q0 -29 21 -46.5t55 -17.5q43 0 65.5 26t37.5 95z" />
    <glyph glyph-name="Racute" unicode="&#x154;" horiz-adv-x="980" 
d="M334 1446h457q272 0 272 -229q0 -50 -10 -91l-33 -141q-28 -120 -81 -173.5t-163 -72.5q78 -22 112 -61t34 -109q0 -50 -17 -125l-57 -251q-14 -96 -14 -105q0 -34 6 -52t24 -36h-293q-14 46 -14 76q0 36 12 88l64 268q20 82 20 115q0 47 -30 68.5t-99 21.5h-110
l-148 -637h-266zM461 844h106q102 0 135.5 29t59.5 141l24 106q7 24 7 41q0 41 -27 59.5t-90 18.5h-123zM1042 1837l-294 -274h-189l166 274h317z" />
    <glyph glyph-name="racute" unicode="&#x155;" horiz-adv-x="598" 
d="M231 1040h244l-33 -133q81 152 254 152h21l-58 -242q-39 17 -77 17q-89 0 -135.5 -54t-71.5 -162l-144 -618h-241zM776 1446l-299 -270h-184l184 270h299z" />
    <glyph glyph-name="Rcommaaccent" unicode="&#x156;" horiz-adv-x="980" 
d="M334 1446h457q272 0 272 -229q0 -50 -10 -91l-33 -141q-28 -120 -81 -173.5t-163 -72.5q78 -22 112 -61t34 -109q0 -50 -17 -125l-57 -251q-14 -96 -14 -105q0 -34 6 -52t24 -36h-293q-14 46 -14 76q0 36 12 88l64 268q20 82 20 115q0 47 -30 68.5t-99 21.5h-110
l-148 -637h-266zM461 844h106q102 0 135.5 29t59.5 141l24 106q7 24 7 41q0 41 -27 59.5t-90 18.5h-123zM352 -367h-73l65 115h-68l41 180h187l-41 -180z" />
    <glyph glyph-name="rcommaaccent" unicode="&#x157;" horiz-adv-x="598" 
d="M231 1040h244l-33 -133q81 152 254 152h21l-58 -242q-39 17 -77 17q-89 0 -135.5 -54t-71.5 -162l-144 -618h-241zM41 -367h-74l66 115h-68l41 180h187l-41 -180z" />
    <glyph glyph-name="Rcaron" unicode="&#x158;" horiz-adv-x="980" 
d="M334 1446h457q272 0 272 -229q0 -50 -10 -91l-33 -141q-28 -120 -81 -173.5t-163 -72.5q78 -22 112 -61t34 -109q0 -50 -17 -125l-57 -251q-14 -96 -14 -105q0 -34 6 -52t24 -36h-293q-14 46 -14 76q0 36 12 88l64 268q20 82 20 115q0 47 -30 68.5t-99 21.5h-110
l-148 -637h-266zM461 844h106q102 0 135.5 29t59.5 141l24 106q7 24 7 41q0 41 -27 59.5t-90 18.5h-123zM1026 1831l-225 -272h-264l-127 272h202l70 -150l119 150h225z" />
    <glyph glyph-name="rcaron" unicode="&#x159;" horiz-adv-x="598" 
d="M231 1040h244l-33 -133q81 152 254 152h21l-58 -242q-39 17 -77 17q-89 0 -135.5 -54t-71.5 -162l-144 -618h-241zM827 1448l-237 -270h-264l-117 270h207l55 -150l133 150h223z" />
    <glyph glyph-name="Sacute" unicode="&#x15a;" horiz-adv-x="917" 
d="M967 1022h-267l23 100q8 33 8 66q0 86 -102 86q-44 0 -76.5 -26t-47.5 -65t-21.5 -70.5t-6.5 -55.5q0 -76 49 -117l168 -141q98 -83 128 -141t30 -148q0 -114 -59 -283q-46 -132 -144.5 -195t-259.5 -63q-178 0 -274.5 69t-96.5 195q0 53 23 150l31 127h264l-29 -117
q-20 -84 -20 -129q0 -41 32.5 -65.5t86.5 -24.5q80 0 108 51q29 50 46.5 125.5t17.5 116.5q0 85 -84 151l-144 115q-72 59 -106.5 118.5t-34.5 143.5q0 192 102 334q104 148 338 148q175 0 266 -60.5t91 -177.5q0 -37 -13 -94zM1051 1837l-295 -274h-189l166 274h318z" />
    <glyph glyph-name="sacute" unicode="&#x15b;" horiz-adv-x="768" 
d="M758 711h-211l16 73q6 27 6 47q0 68 -77 68q-47 0 -75 -34.5t-28 -94.5q0 -45 45 -82l119 -98q66 -56 95.5 -112.5t29.5 -131.5q0 -177 -97.5 -271.5t-279.5 -94.5q-140 0 -212.5 51.5t-72.5 152.5q0 42 23 146l8 37h225l-12 -50q-14 -55 -14 -92q0 -32 21.5 -51.5
t58.5 -19.5q54 0 87 45.5t33 117.5q0 36 -18 62.5t-76 75.5l-92 77q-108 89 -108 218q0 146 97 230.5t263 84.5q129 0 201.5 -51.5t72.5 -145.5q0 -30 -10 -75zM895 1446l-299 -270h-184l184 270h299z" />
    <glyph glyph-name="Scircumflex" unicode="&#x15c;" horiz-adv-x="917" 
d="M967 1022h-267l23 100q8 33 8 66q0 86 -102 86q-44 0 -76.5 -26t-47.5 -65t-21.5 -70.5t-6.5 -55.5q0 -76 49 -117l168 -141q98 -83 128 -141t30 -148q0 -114 -59 -283q-46 -132 -144.5 -195t-259.5 -63q-178 0 -274.5 69t-96.5 195q0 53 23 150l31 127h264l-29 -117
q-20 -84 -20 -129q0 -41 32.5 -65.5t86.5 -24.5q80 0 108 51q29 50 46.5 125.5t17.5 116.5q0 85 -84 151l-144 115q-72 59 -106.5 118.5t-34.5 143.5q0 192 102 334q104 148 338 148q175 0 266 -60.5t91 -177.5q0 -37 -13 -94zM1004 1561h-203l-70 149l-119 -149h-225
l225 272h265z" />
    <glyph glyph-name="scircumflex" unicode="&#x15d;" horiz-adv-x="768" 
d="M758 711h-211l16 73q6 27 6 47q0 68 -77 68q-47 0 -75 -34.5t-28 -94.5q0 -45 45 -82l119 -98q66 -56 95.5 -112.5t29.5 -131.5q0 -177 -97.5 -271.5t-279.5 -94.5q-140 0 -212.5 51.5t-72.5 152.5q0 42 23 146l8 37h225l-12 -50q-14 -55 -14 -92q0 -32 21.5 -51.5
t58.5 -19.5q54 0 87 45.5t33 117.5q0 36 -18 62.5t-76 75.5l-92 77q-108 89 -108 218q0 146 97 230.5t263 84.5q129 0 201.5 -51.5t72.5 -145.5q0 -30 -10 -75zM870 1176h-204l-56 149l-133 -149h-225l240 270h264z" />
    <glyph glyph-name="Scedilla" unicode="&#x15e;" horiz-adv-x="917" 
d="M967 1022h-267l23 100q8 33 8 66q0 86 -102 86q-44 0 -76.5 -26t-47.5 -65t-21.5 -70.5t-6.5 -55.5q0 -76 49 -117l168 -141q98 -83 128 -141t30 -148q0 -114 -59 -283q-46 -132 -144.5 -195t-259.5 -63h-20l-17 -73q178 -9 178 -127q0 -75 -60.5 -115.5t-174.5 -40.5
q-120 0 -215 35l18 59q61 -10 97 -10q94 0 94 59q0 42 -53 58l43 163q-126 20 -193.5 86t-67.5 170q0 53 23 150l31 127h264l-29 -117q-20 -84 -20 -129q0 -41 32.5 -65.5t86.5 -24.5q80 0 108 51q29 50 46.5 125.5t17.5 116.5q0 85 -84 151l-144 115q-72 59 -106.5 118.5
t-34.5 143.5q0 192 102 334q104 148 338 148q175 0 266 -60.5t91 -177.5q0 -37 -13 -94z" />
    <glyph glyph-name="scedilla" unicode="&#x15f;" horiz-adv-x="768" 
d="M758 711h-211l16 73q6 27 6 47q0 68 -77 68q-47 0 -75 -34.5t-28 -94.5q0 -45 45 -82l119 -98q66 -56 95.5 -112.5t29.5 -131.5q0 -171 -93.5 -265.5t-265.5 -100.5l-18 -84q178 -9 178 -127q0 -75 -60.5 -115.5t-174.5 -40.5q-120 0 -215 35l18 59q61 -10 96 -10
q95 0 95 59q0 22 -12.5 35.5t-41.5 22.5l43 170q-211 24 -211 200q0 42 23 146l8 37h225l-12 -50q-14 -55 -14 -92q0 -32 21.5 -51.5t58.5 -19.5q54 0 87 45.5t33 117.5q0 36 -18 62.5t-76 75.5l-92 77q-108 89 -108 218q0 146 97 230.5t263 84.5q129 0 201.5 -51.5
t72.5 -145.5q0 -30 -10 -75z" />
    <glyph glyph-name="Scaron" unicode="&#x160;" horiz-adv-x="917" 
d="M967 1022h-267l23 100q8 33 8 66q0 86 -102 86q-44 0 -76.5 -26t-47.5 -65t-21.5 -70.5t-6.5 -55.5q0 -76 49 -117l168 -141q98 -83 128 -141t30 -148q0 -114 -59 -283q-46 -132 -144.5 -195t-259.5 -63q-178 0 -274.5 69t-96.5 195q0 53 23 150l31 127h264l-29 -117
q-20 -84 -20 -129q0 -41 32.5 -65.5t86.5 -24.5q80 0 108 51q29 50 46.5 125.5t17.5 116.5q0 85 -84 151l-144 115q-72 59 -106.5 118.5t-34.5 143.5q0 192 102 334q104 148 338 148q175 0 266 -60.5t91 -177.5q0 -37 -13 -94zM1014 1831l-226 -272h-264l-127 272h203
l70 -150l118 150h226z" />
    <glyph glyph-name="scaron" unicode="&#x161;" horiz-adv-x="768" 
d="M758 711h-211l16 73q6 27 6 47q0 68 -77 68q-47 0 -75 -34.5t-28 -94.5q0 -45 45 -82l119 -98q66 -56 95.5 -112.5t29.5 -131.5q0 -177 -97.5 -271.5t-279.5 -94.5q-140 0 -212.5 51.5t-72.5 152.5q0 42 23 146l8 37h225l-12 -50q-14 -55 -14 -92q0 -32 21.5 -51.5
t58.5 -19.5q54 0 87 45.5t33 117.5q0 36 -18 62.5t-76 75.5l-92 77q-108 89 -108 218q0 146 97 230.5t263 84.5q129 0 201.5 -51.5t72.5 -145.5q0 -30 -10 -75zM879 1448l-238 -270h-264l-117 270h207l55 -150l133 150h224z" />
    <glyph glyph-name="Tcommaaccent" unicode="&#x162;" 
d="M1036 1446l-47 -209h-268l-287 -1237h-268l287 1237h-267l47 209h803zM223 -367h-73l65 115h-68l41 180h187l-41 -180z" />
    <glyph glyph-name="tcommaaccent" unicode="&#x163;" horiz-adv-x="522" 
d="M625 1040l-37 -161h-121l-129 -555q-14 -58 -14 -86q0 -64 88 -64q5 0 45 4l-41 -176q-64 -12 -109 -12q-120 0 -176.5 44t-56.5 136q0 53 14 113l139 596h-108l37 161h106l90 390h242l-90 -390h121zM141 -367h-73l65 115h-67l40 180h187l-41 -180z" />
    <glyph glyph-name="Tcaron" unicode="&#x164;" 
d="M1036 1446l-47 -209h-268l-287 -1237h-268l287 1237h-267l47 209h803zM993 1831l-225 -272h-264l-127 272h203l69 -150l119 150h225z" />
    <glyph glyph-name="tcaron" unicode="&#x165;" horiz-adv-x="522" 
d="M625 1040l-37 -161h-121l-129 -555q-14 -58 -14 -86q0 -64 88 -64q5 0 45 4l-41 -176q-64 -12 -109 -12q-120 0 -176.5 44t-56.5 136q0 53 14 113l139 596h-108l37 161h106l90 390h242l-90 -390h121zM696 1108h-82l72 127h-76l49 211h207l-49 -211z" />
    <glyph glyph-name="Tbar" unicode="&#x166;" 
d="M176 850l47 201h187l43 186h-267l47 209h803l-47 -209h-268l-43 -186h192l-47 -201h-192l-197 -850h-268l196 850h-186z" />
    <glyph glyph-name="tbar" unicode="&#x167;" horiz-adv-x="522" 
d="M104 762h95l28 117h-108l37 161h106l90 390h242l-90 -390h121l-37 -161h-121l-27 -117h101l-37 -162h-103l-63 -276q-14 -58 -14 -86q0 -64 88 -64q5 0 45 4l-41 -176q-64 -12 -109 -12q-120 0 -176.5 44t-56.5 136q0 53 14 113l74 317h-94z" />
    <glyph glyph-name="Utilde" unicode="&#x168;" horiz-adv-x="974" 
d="M1106 1446l-258 -1120q-43 -186 -148.5 -271.5t-293.5 -85.5q-169 0 -258 71t-89 206q0 44 27 166l238 1034h266l-242 -1049q-18 -86 -18 -104q0 -46 29 -71t83 -25q60 0 92.5 38.5t55.5 137.5l248 1073h268zM995 1815h125q-33 -138 -81.5 -199.5t-127.5 -61.5
q-51 0 -127 39l-61 31q-49 25 -76 25q-65 0 -92 -86h-137q33 130 87 192t142 62q45 0 117 -31l88 -41q40 -19 61 -19q28 0 45 18.5t37 70.5z" />
    <glyph glyph-name="utilde" unicode="&#x169;" horiz-adv-x="854" 
d="M895 1040l-240 -1040h-247l18 76q-83 -96 -211 -96q-88 0 -138 44.5t-50 122.5q0 56 26 172l168 721h242l-172 -745q-10 -48 -10 -66q0 -75 73 -75q48 0 78 33t47 106l172 747h244zM819 1430h123q-28 -132 -77 -195.5t-124 -63.5q-45 0 -129 45.5t-123 45.5
q-31 0 -51.5 -19.5t-40.5 -66.5h-123q26 120 86.5 188t141.5 68q42 0 91 -22t89 -44.5t61 -22.5q26 0 43.5 20t32.5 67z" />
    <glyph glyph-name="Umacron" unicode="&#x16a;" horiz-adv-x="974" 
d="M1106 1446l-258 -1120q-43 -186 -148.5 -271.5t-293.5 -85.5q-169 0 -258 71t-89 206q0 44 27 166l238 1034h266l-242 -1049q-18 -86 -18 -104q0 -46 29 -71t83 -25q60 0 92.5 38.5t55.5 137.5l248 1073h268zM1055 1743l-39 -166h-582l37 166h584z" />
    <glyph glyph-name="umacron" unicode="&#x16b;" horiz-adv-x="854" 
d="M895 1040l-240 -1040h-247l18 76q-83 -96 -211 -96q-88 0 -138 44.5t-50 122.5q0 56 26 172l168 721h242l-172 -745q-10 -48 -10 -66q0 -75 73 -75q48 0 78 33t47 106l172 747h244zM915 1382l-38 -165h-582l37 165h583z" />
    <glyph glyph-name="Ubreve" unicode="&#x16c;" horiz-adv-x="974" 
d="M1106 1446l-258 -1120q-43 -186 -148.5 -271.5t-293.5 -85.5q-169 0 -258 71t-89 206q0 44 27 166l238 1034h266l-242 -1049q-18 -86 -18 -104q0 -46 29 -71t83 -25q60 0 92.5 38.5t55.5 137.5l248 1073h268zM961 1864l116 -60q-58 -118 -146 -181.5t-200 -63.5
q-122 0 -198 73t-91 195l136 33q12 -49 58 -84t118 -35q140 0 207 123z" />
    <glyph glyph-name="ubreve" unicode="&#x16d;" horiz-adv-x="854" 
d="M895 1040l-240 -1040h-247l18 76q-83 -96 -211 -96q-88 0 -138 44.5t-50 122.5q0 56 26 172l168 721h242l-172 -745q-10 -48 -10 -66q0 -75 73 -75q48 0 78 33t47 106l172 747h244zM844 1509l114 -59q-130 -272 -358 -272q-124 0 -200 78.5t-93 224.5l135 32
q12 -69 61 -107t126 -38q75 0 126.5 34t88.5 107z" />
    <glyph glyph-name="Uring" unicode="&#x16e;" horiz-adv-x="974" 
d="M1106 1446l-258 -1120q-43 -186 -148.5 -271.5t-293.5 -85.5q-169 0 -258 71t-89 206q0 44 27 166l238 1034h266l-242 -1049q-18 -86 -18 -104q0 -46 29 -71t83 -25q60 0 92.5 38.5t55.5 137.5l248 1073h268zM932 1698q0 -75 -53.5 -128.5t-128.5 -53.5t-129 54t-54 130
q0 74 54 128t127 54q76 0 130 -54t54 -130zM834 1698q0 37 -24.5 63.5t-59.5 26.5q-37 0 -61.5 -25.5t-24.5 -62.5t25.5 -62.5t60.5 -25.5q34 0 59 25.5t25 60.5z" />
    <glyph glyph-name="uring" unicode="&#x16f;" horiz-adv-x="854" 
d="M895 1040l-240 -1040h-247l18 76q-83 -96 -211 -96q-88 0 -138 44.5t-50 122.5q0 56 26 172l168 721h242l-172 -745q-10 -48 -10 -66q0 -75 73 -75q48 0 78 33t47 106l172 747h244zM791 1358q0 -75 -55 -129.5t-130 -54.5t-129.5 52.5t-54.5 127.5q0 78 53 132t131 54
t131.5 -52t53.5 -130zM690 1356q0 37 -24 62.5t-58 25.5q-37 0 -62.5 -25.5t-25.5 -62.5q0 -35 24.5 -60.5t59.5 -25.5q36 0 61 25t25 61z" />
    <glyph glyph-name="Uhungarumlaut" unicode="&#x170;" horiz-adv-x="974" 
d="M1106 1446l-258 -1120q-43 -186 -148.5 -271.5t-293.5 -85.5q-169 0 -258 71t-89 206q0 44 27 166l238 1034h266l-242 -1049q-18 -86 -18 -104q0 -46 29 -71t83 -25q60 0 92.5 38.5t55.5 137.5l248 1073h268zM1247 1837l-295 -274h-149l182 274h262zM915 1837l-294 -274
h-150l182 274h262z" />
    <glyph glyph-name="uhungarumlaut" unicode="&#x171;" horiz-adv-x="854" 
d="M895 1040l-240 -1040h-247l18 76q-83 -96 -211 -96q-88 0 -138 44.5t-50 122.5q0 56 26 172l168 721h242l-172 -745q-10 -48 -10 -66q0 -75 73 -75q48 0 78 33t47 106l172 747h244zM1096 1446l-297 -270h-150l199 270h248zM774 1446l-297 -270h-147l198 270h246z" />
    <glyph glyph-name="Uogonek" unicode="&#x172;" horiz-adv-x="974" 
d="M1106 1446l-258 -1120q-24 -105 -65.5 -173.5t-92.5 -103t-129 -61.5q-95 -33 -132.5 -83.5t-37.5 -97.5q0 -33 20 -52t54 -19q47 0 121 39l-39 -133q-77 -31 -154 -31q-91 0 -148 44t-57 116q0 63 35.5 109t114.5 93q-137 14 -208 83t-71 190q0 44 27 166l238 1034h266
l-242 -1049q-18 -86 -18 -104q0 -46 29 -71t83 -25q60 0 92.5 38.5t55.5 137.5l248 1073h268z" />
    <glyph glyph-name="uogonek" unicode="&#x173;" horiz-adv-x="854" 
d="M895 1040l-240 -1040q-81 -28 -127.5 -87t-46.5 -106q0 -33 20 -52t54 -19q47 0 121 39l-39 -133q-77 -31 -154 -31q-91 0 -147.5 44t-56.5 116q0 71 45 121t151 108h-67l18 76q-83 -96 -211 -96q-88 0 -138 44.5t-50 122.5q0 56 26 172l168 721h242l-172 -745
q-10 -48 -10 -66q0 -75 73 -75q48 0 78 33t47 106l172 747h244z" />
    <glyph glyph-name="Wcircumflex" unicode="&#x174;" horiz-adv-x="1449" 
d="M1655 1446l-613 -1446h-280l88 991l-383 -991h-285l70 1446h268l-104 -1090l405 1090h252l-100 -1090l403 1090h279zM1268 1561h-203l-70 149l-118 -149h-226l226 272h264z" />
    <glyph glyph-name="wcircumflex" unicode="&#x175;" horiz-adv-x="1150" 
d="M1288 1040l-481 -1040h-229l47 629l-273 -629h-231l29 1040h237l-53 -688l289 688h192l-49 -688l285 688h237zM1032 1176h-205l-55 149l-133 -149h-225l239 270h265z" />
    <glyph glyph-name="Ycircumflex" unicode="&#x176;" horiz-adv-x="854" 
d="M1081 1446l-522 -1018l-100 -428h-273l105 446l-60 1000h273l-12 -729l303 729h286zM963 1561h-203l-70 149l-119 -149h-225l225 272h265z" />
    <glyph glyph-name="ycircumflex" unicode="&#x177;" horiz-adv-x="724" 
d="M856 1040l-526 -1177q-36 -82 -73 -128t-95.5 -71.5t-145.5 -25.5q-82 0 -170 18l80 190q55 -14 86 -14q106 0 154 166q-25 927 -29 1042h238l-17 -669l254 669h244zM819 1176h-205l-55 149l-133 -149h-225l239 270h265z" />
    <glyph glyph-name="Ydieresis" unicode="&#x178;" horiz-adv-x="854" 
d="M1081 1446l-522 -1018l-100 -428h-273l105 446l-60 1000h273l-12 -729l303 729h286zM1051 1808l-58 -247h-237l57 247h238zM641 1808l-57 -247h-240l57 247h240z" />
    <glyph glyph-name="Zacute" unicode="&#x179;" horiz-adv-x="854" 
d="M1016 1446l-33 -143l-682 -1078h444l-51 -225h-755l38 168l662 1055h-379l53 223h703zM1030 1837l-295 -274h-188l166 274h317z" />
    <glyph glyph-name="zacute" unicode="&#x17a;" horiz-adv-x="724" 
d="M784 1040l-45 -194l-495 -643h374l-47 -203h-632l47 203l499 643h-323l47 194h575zM870 1446l-299 -270h-184l184 270h299z" />
    <glyph glyph-name="Zdotaccent" unicode="&#x17b;" horiz-adv-x="854" 
d="M1016 1446l-33 -143l-682 -1078h444l-51 -225h-755l38 168l662 1055h-379l53 223h703zM852 1808l-57 -247h-242l57 247h242z" />
    <glyph glyph-name="zdotaccent" unicode="&#x17c;" horiz-adv-x="724" 
d="M784 1040l-45 -194l-495 -643h374l-47 -203h-632l47 203l499 643h-323l47 194h575zM694 1464l-57 -245h-242l58 245h241z" />
    <glyph glyph-name="Zcaron" unicode="&#x17d;" horiz-adv-x="854" 
d="M1016 1446l-33 -143l-682 -1078h444l-51 -225h-755l38 168l662 1055h-379l53 223h703zM1010 1831l-226 -272h-264l-127 272h203l70 -150l118 150h226z" />
    <glyph glyph-name="zcaron" unicode="&#x17e;" horiz-adv-x="724" 
d="M784 1040l-45 -194l-495 -643h374l-47 -203h-632l47 203l499 643h-323l47 194h575zM864 1448l-237 -270h-265l-116 270h207l55 -150l133 150h223z" />
    <glyph glyph-name="longs" unicode="&#x17f;" horiz-adv-x="464" 
d="M715 1440l-45 -197q-30 6 -45 6q-46 0 -66.5 -29t-34.5 -92l-260 -1128h-241l200 877h-108l39 163h108l45 191q29 123 99.5 173t179.5 50q69 0 129 -14z" />
    <glyph glyph-name="florin" unicode="&#x192;" horiz-adv-x="669" 
d="M793 1376l-48 -198q-50 4 -51 4q-22 0 -37 -6t-24 -21.5t-13.5 -28.5t-11.5 -39l-12 -47h106l-36 -161h-109l-235 -994q-29 -121 -98 -169t-212 -48q-52 0 -102 4l49 199q18 -2 43 -2q42 0 62.5 20t31.5 68l217 922h-106l35 161h110l33 136q27 111 95.5 157.5t215.5 46.5
q60 0 97 -4z" />
    <glyph glyph-name="Aringacute" unicode="&#x1fa;" horiz-adv-x="894" 
d="M510 1446h305l-39 -1446h-262l16 236h-245l-90 -236h-275zM594 1079l-229 -620h184zM983 2036l-295 -224h-139l188 224h246zM809 1649q0 -56 -37 -92.5t-92 -36.5q-53 0 -90 34.5t-37 92.5q0 57 37.5 94t91.5 37t90.5 -37t36.5 -92zM733 1647q0 26 -14 40.5t-39 14.5
q-22 0 -36.5 -14.5t-14.5 -40.5q0 -23 15 -38.5t38 -15.5q22 0 36.5 15.5t14.5 38.5z" />
    <glyph glyph-name="aringacute" unicode="&#x1fb;" 
d="M657 0h-256q-12 17 -12 45q0 22 4 47q-84 -115 -209 -115q-86 0 -132 49.5t-46 143.5q0 103 30 195t79 141q32 32 87.5 62.5t94.5 45.5l233 91l13 49q12 52 12 75q0 66 -78 66q-49 0 -69.5 -32t-34.5 -105l-6 -31h-224l15 68q31 145 110 208.5t228 63.5q145 0 225 -51.5
t80 -145.5q0 -49 -29 -174l-102 -440q-4 -17 -11 -48.5t-9.5 -44.5t-6.5 -32.5t-5 -33t-1 -27.5q0 -41 20 -70zM418 221l65 285q-93 -38 -127.5 -59t-58.5 -52q-20 -27 -33.5 -73.5t-13.5 -85.5q0 -68 57 -68q39 0 111 53zM844 1714l-275 -219h-125l168 219h232zM705 1317
q0 -58 -43.5 -100.5t-104.5 -42.5q-60 0 -101.5 42t-41.5 101q0 61 41.5 103t101.5 42q68 0 108 -43.5t40 -101.5zM612 1319q0 26 -14.5 41.5t-38.5 15.5q-25 0 -40 -16.5t-15 -40.5q0 -23 16 -39t39 -16t38 16t15 39z" />
    <glyph glyph-name="AEacute" unicode="&#x1fc;" horiz-adv-x="1458" 
d="M1610 1446l-51 -223h-424l-78 -334h420l-52 -217h-417l-105 -449h492l-52 -223h-757l69 299h-268l-170 -299h-309l878 1446h824zM854 1147l-346 -629h197zM1526 1837l-295 -274h-189l166 274h318z" />
    <glyph glyph-name="aeacute" unicode="&#x1fd;" horiz-adv-x="1193" 
d="M1126 473h-415l-35 -149q-14 -59 -14 -86q0 -32 20 -50t55 -18q41 0 65.5 26.5t39.5 86.5l16 63h236l-9 -39q-35 -171 -114.5 -249t-241.5 -78q-104 0 -168 27.5t-102 90.5q-115 -118 -258 -118q-100 0 -147.5 47t-47.5 147q0 123 36 210.5t97.5 140t157.5 89.5l233 91
l13 49q12 52 12 75q0 66 -78 66q-23 0 -40.5 -9t-27.5 -20t-18 -34.5t-11 -38t-9 -45.5l-4 -21h-224l15 66q31 144 108.5 209t229.5 65q127 0 211 -43q56 24 96 32.5t98 8.5q146 0 221.5 -59.5t75.5 -176.5q0 -49 -22 -143zM924 639l24 113q8 36 8 53q0 67 -75 67
q-42 0 -66.5 -24t-36.5 -80l-28 -129h174zM432 233l53 275q-94 -39 -129 -60.5t-59 -52.5q-20 -27 -33.5 -73.5t-13.5 -85.5q0 -66 55 -66q49 0 127 63zM1061 1446l-299 -270h-184l184 270h299z" />
    <glyph glyph-name="Oslashacute" unicode="&#x1fe;" horiz-adv-x="980" 
d="M1151 1360l-102 -123q2 -16 2 -35q0 -52 -21 -145l-151 -662q-42 -178 -80 -243q-51 -89 -145.5 -136t-223.5 -47q-231 0 -319 111l-58 -72l-104 88l110 133v23q0 64 25 172l154 661q27 116 65 192.5t94 121t124 62.5t163 18q203 0 307 -107l58 68zM406 653l368 453
q8 33 8 65q0 51 -30 78t-84 27q-63 0 -98.5 -35.5t-55.5 -120.5zM705 803l-367 -441q-12 -52 -12 -90q0 -44 31.5 -69t88.5 -25q76 0 105 42t55 155zM1090 1837l-295 -274h-189l166 274h318z" />
    <glyph glyph-name="oslashacute" unicode="&#x1ff;" 
d="M834 1038l71 -69l-92 -95v-24q0 -50 -12 -109l-105 -454q-37 -163 -121 -237.5t-233 -74.5q-184 0 -266 99l-72 -72l-72 64l103 112v33q0 44 14 113l103 440q37 155 126.5 229t237.5 74q88 0 148 -22.5t106 -73.5zM332 498l231 250l4 16q11 51 11 72q0 32 -19.5 49.5
t-54.5 17.5q-77 0 -98 -94zM520 561l-231 -258l-8 -31q-11 -43 -11 -63q0 -31 20.5 -48.5t55.5 -17.5q42 0 66 27.5t41 99.5zM918 1446l-300 -270h-184l184 270h300z" />
    <glyph glyph-name="Scommaaccent" unicode="&#x218;" horiz-adv-x="917" 
d="M967 1022h-267l23 100q8 33 8 66q0 86 -102 86q-44 0 -76.5 -26t-47.5 -65t-21.5 -70.5t-6.5 -55.5q0 -76 49 -117l168 -141q98 -83 128 -141t30 -148q0 -114 -59 -283q-46 -132 -144.5 -195t-259.5 -63q-178 0 -274.5 69t-96.5 195q0 53 23 150l31 127h264l-29 -117
q-20 -84 -20 -129q0 -41 32.5 -65.5t86.5 -24.5q80 0 108 51q29 50 46.5 125.5t17.5 116.5q0 85 -84 151l-144 115q-72 59 -106.5 118.5t-34.5 143.5q0 192 102 334q104 148 338 148q175 0 266 -60.5t91 -177.5q0 -37 -13 -94zM297 -367h-74l66 115h-68l41 180h187l-41 -180
z" />
    <glyph glyph-name="scommaaccent" unicode="&#x219;" horiz-adv-x="768" 
d="M758 711h-211l16 73q6 27 6 47q0 68 -77 68q-47 0 -75 -34.5t-28 -94.5q0 -45 45 -82l119 -98q66 -56 95.5 -112.5t29.5 -131.5q0 -177 -97.5 -271.5t-279.5 -94.5q-140 0 -212.5 51.5t-72.5 152.5q0 42 23 146l8 37h225l-12 -50q-14 -55 -14 -92q0 -32 21.5 -51.5
t58.5 -19.5q54 0 87 45.5t33 117.5q0 36 -18 62.5t-76 75.5l-92 77q-108 89 -108 218q0 146 97 230.5t263 84.5q129 0 201.5 -51.5t72.5 -145.5q0 -30 -10 -75zM221 -367h-74l66 115h-68l41 180h187l-41 -180z" />
    <glyph glyph-name="uni021A" unicode="&#x21a;" 
d="M1036 1446l-47 -209h-268l-287 -1237h-268l287 1237h-267l47 209h803zM223 -367h-73l65 115h-68l41 180h187l-41 -180z" />
    <glyph glyph-name="uni021B" unicode="&#x21b;" horiz-adv-x="522" 
d="M625 1040l-37 -161h-121l-129 -555q-14 -58 -14 -86q0 -64 88 -64q5 0 45 4l-41 -176q-64 -12 -109 -12q-120 0 -176.5 44t-56.5 136q0 53 14 113l139 596h-108l37 161h106l90 390h242l-90 -390h121zM141 -367h-73l65 115h-67l40 180h187l-41 -180z" />
    <glyph glyph-name="circumflex" unicode="&#x2c6;" horiz-adv-x="425" 
d="M522 1176h-205l-55 149l-133 -149h-225l239 270h265z" />
    <glyph glyph-name="caron" unicode="&#x2c7;" horiz-adv-x="425" 
d="M522 1448l-237 -270h-265l-116 270h207l55 -150l133 150h223z" />
    <glyph glyph-name="uni02C9" unicode="&#x2c9;" horiz-adv-x="425" 
d="M522 1382l-39 -165h-581l37 165h583z" />
    <glyph glyph-name="breve" unicode="&#x2d8;" horiz-adv-x="425" 
d="M424 1509l115 -59q-130 -272 -359 -272q-124 0 -200 78.5t-93 224.5l136 32q12 -69 60.5 -107t125.5 -38q75 0 126.5 34t88.5 107z" />
    <glyph glyph-name="dotaccent" unicode="&#x2d9;" horiz-adv-x="425" 
d="M362 1464l-57 -245h-242l58 245h241z" />
    <glyph glyph-name="ring" unicode="&#x2da;" horiz-adv-x="425" 
d="M397 1358q0 -75 -54.5 -129.5t-129.5 -54.5t-129.5 52.5t-54.5 127.5q0 78 53 132t131 54t131 -52t53 -130zM297 1356q0 37 -24 62.5t-58 25.5q-37 0 -62.5 -25.5t-25.5 -62.5q0 -35 24.5 -60.5t59.5 -25.5q36 0 61 25t25 61z" />
    <glyph glyph-name="ogonek" unicode="&#x2db;" horiz-adv-x="425" 
d="M260 25h115q-158 -134 -158 -218q0 -33 20 -52t54 -19q47 0 121 39l-39 -133q-77 -31 -154 -31q-91 0 -148 44t-57 116q0 78 55.5 131.5t190.5 122.5z" />
    <glyph glyph-name="tilde" unicode="&#x2dc;" horiz-adv-x="425" 
d="M424 1430h123q-28 -132 -77 -195.5t-124 -63.5q-45 0 -129 45.5t-123 45.5q-31 0 -51.5 -19.5t-40.5 -66.5h-123q26 121 86 188.5t141 67.5q42 0 91 -22t89.5 -44.5t61.5 -22.5q26 0 43.5 20t32.5 67z" />
    <glyph glyph-name="hungarumlaut" unicode="&#x2dd;" horiz-adv-x="425" 
d="M596 1446l-297 -270h-149l198 270h248zM274 1446l-297 -270h-147l199 270h245z" />
    <glyph glyph-name="uni037E" unicode="&#x37e;" horiz-adv-x="468" 
d="M541 1049l-62 -265h-237l59 265h240zM360 264l-61 -264l-233 -276h-91l203 276h-119l62 264h239z" />
    <glyph glyph-name="tonos" unicode="&#x384;" horiz-adv-x="512" 
d="M455 1446l-299 -270h-185l185 270h299z" />
    <glyph glyph-name="dieresistonos" unicode="&#x385;" horiz-adv-x="808" 
d="M844 1493l-252 -336h-154l154 336h252zM1042 1403l-57 -246h-217l57 246h217zM453 1403l-58 -246h-219l57 246h220z" />
    <glyph glyph-name="Alphatonos" unicode="&#x386;" horiz-adv-x="894" 
d="M510 1446h305l-39 -1446h-262l16 236h-245l-90 -236h-275zM365 459h184l45 620zM414 1446l-299 -270h-185l185 270h299z" />
    <glyph glyph-name="anoteleia" unicode="&#x387;" horiz-adv-x="382" 
d="M381 1040l-59 -264h-240l59 264h240z" />
    <glyph glyph-name="Epsilontonos" unicode="&#x388;" horiz-adv-x="854" 
d="M1034 1446l-51 -219h-434l-78 -340h410l-52 -219h-409l-103 -445h455l-51 -223h-721l334 1446h700zM250 1446l-299 -270h-184l184 270h299z" />
    <glyph glyph-name="Etatonos" unicode="&#x389;" horiz-adv-x="980" 
d="M1061 1446l-334 -1446h-266l151 662h-243l-152 -662h-266l334 1446h266l-131 -567h244l131 567h266zM201 1446l-299 -270h-185l185 270h299z" />
    <glyph glyph-name="Iotatonos" unicode="&#x38a;" horiz-adv-x="466" 
d="M598 1446l-334 -1446h-264l334 1446h264zM250 1446l-299 -270h-184l184 270h299z" />
    <glyph glyph-name="Omicrontonos" unicode="&#x38c;" horiz-adv-x="980" 
d="M1030 1057l-162 -705q-16 -71 -35 -122.5t-53 -103.5t-79 -84.5t-115 -52.5t-160 -20q-367 0 -367 283q0 61 25 172l154 659q34 146 84.5 230t136.5 125t221 41q178 0 274.5 -73t96.5 -208q0 -45 -21 -141zM604 369l164 704q14 59 14 101q0 49 -30 75.5t-84 26.5
q-69 0 -102 -36.5t-60 -154.5l-160 -692q-20 -90 -20 -114q0 -101 120 -101q33 0 57.5 10t39 23t27 42.5t18.5 50.5t16 65zM311 1446l-299 -270h-184l184 270h299z" />
    <glyph glyph-name="Upsilontonos" unicode="&#x38e;" horiz-adv-x="854" 
d="M1081 1446l-522 -1018l-100 -428h-273l105 446l-60 1000h273l-12 -729l303 729h286zM188 1446l-299 -270h-184l184 270h299z" />
    <glyph glyph-name="Omegatonos" unicode="&#x38f;" horiz-adv-x="987" 
d="M1036 1057l-106 -469q-36 -161 -93.5 -249.5t-156.5 -127.5h164l-49 -211h-357l49 215q59 35 100.5 129.5t96.5 333.5l90 395q14 59 14 101q0 49 -30 75.5t-84 26.5q-69 0 -103 -38t-61 -155l-92 -405q-62 -270 -62 -350q0 -79 43 -113l-49 -215h-356l49 211h203
q-135 67 -135 235q0 63 18 142l115 495q34 146 84.5 230t136.5 125t221 41q178 0 274.5 -73t96.5 -208q0 -45 -21 -141zM311 1446l-299 -270h-184l184 270h299z" />
    <glyph glyph-name="iotadieresistonos" unicode="&#x390;" horiz-adv-x="448" 
d="M43 231l186 809h246l-178 -768q-10 -45 -10 -61q0 -22 12.5 -28.5t48.5 -6.5h8l-39 -174q-55 -6 -88 -6q-104 0 -151 34t-47 109q0 39 12 92zM696 1493l-252 -336h-153l153 336h252zM895 1403l-57 -246h-217l57 246h217zM305 1403l-57 -246h-219l57 246h219z" />
    <glyph glyph-name="Alpha" unicode="&#x391;" horiz-adv-x="894" 
d="M510 1446h305l-39 -1446h-262l16 236h-245l-90 -236h-275zM365 459h184l45 620z" />
    <glyph glyph-name="Beta" unicode="&#x392;" horiz-adv-x="978" 
d="M334 1446h409q54 0 92.5 -3.5t81 -16t69 -35t44 -63t17.5 -97.5q0 -46 -13 -103l-20 -92q-29 -133 -76 -185.5t-152 -72.5q136 -30 136 -141q0 -58 -21 -154l-41 -184q-11 -47 -22 -80.5t-38.5 -78.5t-64.5 -72.5t-100.5 -47.5t-145.5 -20h-489zM553 1239l-84 -365h72
q105 0 145 26.5t57 107.5l19 86q10 45 10 65q0 43 -26.5 61.5t-86.5 18.5h-106zM420 666l-107 -457h95q39 0 60 1t45 6t35.5 13.5t24.5 25t21 40t16 59.5l39 170q8 40 8 64q0 43 -27.5 60.5t-94.5 17.5h-115z" />
    <glyph glyph-name="Gamma" unicode="&#x393;" horiz-adv-x="780" 
d="M961 1223h-410l-283 -1223h-268l334 1446h678z" />
    <glyph glyph-name="uni0394" unicode="&#x394;" horiz-adv-x="1036" 
d="M934 0h-1034l718 1446h269zM678 1100l-387 -881h377z" />
    <glyph glyph-name="Epsilon" unicode="&#x395;" horiz-adv-x="854" 
d="M1034 1446l-51 -219h-434l-78 -340h410l-52 -219h-409l-103 -445h455l-51 -223h-721l334 1446h700z" />
    <glyph glyph-name="Zeta" unicode="&#x396;" horiz-adv-x="854" 
d="M1016 1446l-33 -143l-682 -1078h444l-51 -225h-755l38 168l662 1055h-379l53 223h703z" />
    <glyph glyph-name="Eta" unicode="&#x397;" horiz-adv-x="980" 
d="M1061 1446l-334 -1446h-266l151 662h-243l-152 -662h-266l334 1446h266l-131 -567h244l131 567h266z" />
    <glyph glyph-name="Theta" unicode="&#x398;" horiz-adv-x="980" 
d="M1030 1057l-162 -705q-16 -71 -35 -122.5t-53 -103.5t-79 -84.5t-115 -52.5t-160 -20q-367 0 -367 283q0 61 25 172l154 659q34 146 84.5 230t136.5 125t221 41q178 0 274.5 -73t96.5 -208q0 -45 -21 -141zM604 369l164 704q14 59 14 101q0 49 -30 75.5t-84 26.5
q-69 0 -102 -36.5t-60 -154.5l-160 -692q-20 -90 -20 -114q0 -101 120 -101q33 0 57.5 10t39 23t27 42.5t18.5 50.5t16 65zM500 887h188l-51 -219h-188z" />
    <glyph glyph-name="Iota" unicode="&#x399;" horiz-adv-x="466" 
d="M598 1446l-334 -1446h-264l334 1446h264z" />
    <glyph glyph-name="Kappa" unicode="&#x39a;" horiz-adv-x="937" 
d="M1159 1446l-477 -645l160 -801h-281l-127 707l-164 -707h-270l334 1446h270l-131 -563l404 563h282z" />
    <glyph glyph-name="Lambda" unicode="&#x39b;" horiz-adv-x="864" 
d="M561 1065l-362 -1065h-269l549 1446h305l-39 -1446h-262z" />
    <glyph glyph-name="Mu" unicode="&#x39c;" horiz-adv-x="1409" 
d="M1538 1446l-334 -1446h-266l313 1253l-522 -1253h-248l49 1253l-268 -1253h-262l334 1446h434l-63 -1012l405 1012h428z" />
    <glyph glyph-name="Nu" unicode="&#x39d;" horiz-adv-x="1024" 
d="M1153 1446l-334 -1446h-336l-6 1083l-227 -1083h-250l334 1446h342l14 -1061l219 1061h244z" />
    <glyph glyph-name="Xi" unicode="&#x39e;" horiz-adv-x="856" 
d="M725 0h-791l56 244h790zM207 897h659l-55 -240h-659zM981 1206h-750l56 240h749z" />
    <glyph glyph-name="Omicron" unicode="&#x39f;" horiz-adv-x="980" 
d="M1030 1057l-162 -705q-16 -71 -35 -122.5t-53 -103.5t-79 -84.5t-115 -52.5t-160 -20q-367 0 -367 283q0 61 25 172l154 659q34 146 84.5 230t136.5 125t221 41q178 0 274.5 -73t96.5 -208q0 -45 -21 -141zM604 369l164 704q14 59 14 101q0 49 -30 75.5t-84 26.5
q-69 0 -102 -36.5t-60 -154.5l-160 -692q-20 -90 -20 -114q0 -101 120 -101q33 0 57.5 10t39 23t27 42.5t18.5 50.5t16 65z" />
    <glyph glyph-name="Pi" unicode="&#x3a0;" horiz-adv-x="960" 
d="M756 0h-267l283 1229h-223l-283 -1229h-266l332 1446h755z" />
    <glyph glyph-name="Rho" unicode="&#x3a1;" horiz-adv-x="935" 
d="M334 1446h465q113 0 181.5 -55.5t68.5 -163.5q0 -48 -17 -131l-47 -207q-36 -159 -110.5 -223t-241.5 -64h-225l-140 -602h-268zM553 1233l-98 -424h129q77 0 104.5 23.5t46.5 105.5l33 147q10 48 10 68q0 43 -24.5 61.5t-83.5 18.5h-117z" />
    <glyph glyph-name="Sigma" unicode="&#x3a3;" horiz-adv-x="821" 
d="M-16 168l397 616l-143 484l43 178h714l-51 -219h-426l137 -457l-350 -545h445l-52 -225h-753z" />
    <glyph glyph-name="Tau" unicode="&#x3a4;" 
d="M1036 1446l-47 -209h-268l-287 -1237h-268l287 1237h-267l47 209h803z" />
    <glyph glyph-name="Upsilon" unicode="&#x3a5;" horiz-adv-x="854" 
d="M1081 1446l-522 -1018l-100 -428h-273l105 446l-60 1000h273l-12 -729l303 729h286z" />
    <glyph glyph-name="Phi" unicode="&#x3a6;" horiz-adv-x="1228" 
d="M899 457l125 540q8 40 8 56q0 92 -129 92l-192 -836q83 0 127 35t61 113zM664 106l-25 -106h-264l24 106q-181 0 -260.5 75.5t-79.5 201.5q0 59 15 121l114 506q27 116 79.5 187.5t155.5 111t263 39.5l23 98h264l-23 -98q185 0 266.5 -73t81.5 -196q0 -59 -14 -114
l-123 -521q-28 -116 -80 -187t-154.5 -111t-262.5 -40zM449 997l-125 -540q-9 -45 -9 -56q0 -49 32 -70.5t99 -21.5l193 836q-83 0 -127 -35t-63 -113z" />
    <glyph glyph-name="Chi" unicode="&#x3a7;" horiz-adv-x="980" 
d="M1153 1446l-442 -684l151 -762h-280l-68 489l-274 -489h-306l492 778l-137 668h282l60 -395l219 395h303z" />
    <glyph glyph-name="Psi" unicode="&#x3a8;" horiz-adv-x="1269" 
d="M985 715l170 731h264l-178 -772q-18 -78 -52.5 -137.5t-92.5 -107.5t-148 -73.5t-209 -25.5l-75 -330h-265l76 330q-94 0 -162.5 21.5t-106.5 60t-55.5 86.5t-17.5 108q0 51 14 119l166 721h265l-168 -731q-9 -35 -9 -62q0 -106 123 -106l209 899h264l-209 -899
q157 0 197 168z" />
    <glyph glyph-name="uni03A9" unicode="&#x3a9;" horiz-adv-x="1099" 
d="M971 213l-49 -213h-428l53 215q58 41 90 106t63 199l121 510q23 98 23 127q0 53 -34.5 83t-94.5 30q-72 0 -109 -39.5t-65 -161.5l-76 -332q-7 -29 -18.5 -81t-15.5 -68t-11 -49t-9 -45t-5 -34.5t-4 -38.5t-1 -36q0 -117 41 -170l-51 -215h-411l49 213h250
q-109 112 -109 340q0 110 33 262l61 266q49 211 156 296t321 85q182 0 279.5 -74t97.5 -212q0 -74 -22 -170l-60 -254q-48 -211 -109.5 -332t-189.5 -207h234z" />
    <glyph glyph-name="Iotadieresis" unicode="&#x3aa;" horiz-adv-x="466" 
d="M598 1446l-334 -1446h-264l334 1446h264zM870 1808l-57 -247h-238l58 247h237zM461 1808l-58 -247h-239l57 247h240z" />
    <glyph glyph-name="Upsilondieresis" unicode="&#x3ab;" horiz-adv-x="854" 
d="M1081 1446l-522 -1018l-100 -428h-273l105 446l-60 1000h273l-12 -729l303 729h286zM1051 1808l-58 -247h-237l57 247h238zM641 1808l-57 -247h-240l57 247h240z" />
    <glyph glyph-name="alphatonos" unicode="&#x3ac;" horiz-adv-x="872" 
d="M899 1040l-176 -768q-10 -42 -10 -59q0 -19 11.5 -28t41.5 -9h8l-39 -174q-47 -6 -82 -6q-90 0 -133 27t-55 86q-68 -75 -122 -104.5t-126 -29.5q-92 0 -142 51.5t-50 145.5q0 42 18 123l96 430q14 61 26.5 103t36 90t53 77t76 48.5t105.5 19.5q140 0 197 -119l24 96h242
zM492 305l94 418q8 46 8 57q0 38 -22 60t-62 22q-49 0 -77.5 -35.5t-47.5 -119.5l-88 -396q-10 -52 -10 -65q0 -36 21 -56t59 -20q48 0 77.5 28.5t47.5 106.5zM956 1446l-299 -270h-184l184 270h299z" />
    <glyph glyph-name="epsilontonos" unicode="&#x3ad;" horiz-adv-x="831" 
d="M174 793l4 22q30 130 125.5 192t237.5 62q47 0 93.5 -10t93.5 -33t76.5 -68.5t29.5 -107.5q0 -45 -25 -141h-242q25 85 25 120q0 66 -72 66q-56 0 -79.5 -25.5t-41.5 -97.5q-8 -46 -8 -57q0 -39 29 -56.5t104 -17.5h27l-39 -166h-37q-98 0 -133 -29t-51 -104l-10 -45
q-7 -27 -7 -66q0 -32 20 -51.5t60 -19.5q52 0 77.5 37t41.5 98l25 106h241l-24 -104q-36 -156 -125 -236.5t-252 -80.5q-147 0 -226 55t-79 164q0 43 8 82l8 34q25 109 85 169t161 75q-133 17 -133 148q0 39 12 86zM975 1446l-299 -270h-184l184 270h299z" />
    <glyph glyph-name="etatonos" unicode="&#x3ae;" horiz-adv-x="868" 
d="M4 0l186 803q7 27 7 51q0 22 -11.5 27.5t-42.5 5.5l37 164q68 10 119 10q28 0 48.5 -3t45.5 -13t41 -33.5t21 -59.5q63 58 112.5 83.5t116.5 25.5q88 0 138 -45t50 -123q0 -48 -28 -172l-250 -1081h-242l256 1105q10 48 10 66q0 76 -73 76q-49 0 -78.5 -32.5
t-46.5 -106.5l-172 -748h-244zM989 1446l-299 -270h-184l184 270h299z" />
    <glyph glyph-name="iotatonos" unicode="&#x3af;" horiz-adv-x="448" 
d="M43 231l186 809h246l-178 -768q-10 -45 -10 -61q0 -22 12.5 -28.5t48.5 -6.5h8l-39 -174q-55 -6 -88 -6q-104 0 -151 34t-47 109q0 39 12 92zM752 1446l-299 -270h-185l185 270h299z" />
    <glyph glyph-name="upsilondieresistonos" unicode="&#x3b0;" horiz-adv-x="854" 
d="M895 1040l-180 -782q-35 -152 -128.5 -217.5t-242.5 -65.5q-131 0 -217 63.5t-86 182.5q0 49 10 90l170 729h242l-180 -784q-4 -16 -4 -35q0 -29 20.5 -52.5t60.5 -23.5q47 0 76 37t37 76l180 782h242zM856 1493l-252 -336h-153l153 336h252zM1055 1403l-58 -246h-217
l58 246h217zM465 1403l-57 -246h-220l58 246h219z" />
    <glyph glyph-name="alpha" unicode="&#x3b1;" horiz-adv-x="872" 
d="M899 1040l-176 -768q-10 -42 -10 -59q0 -19 11.5 -28t41.5 -9h8l-39 -174q-47 -6 -82 -6q-90 0 -133 27t-55 86q-68 -75 -122 -104.5t-126 -29.5q-92 0 -142 51.5t-50 145.5q0 42 18 123l96 430q14 61 26.5 103t36 90t53 77t76 48.5t105.5 19.5q140 0 197 -119l24 96h242
zM492 305l94 418q8 46 8 57q0 38 -22 60t-62 22q-49 0 -77.5 -35.5t-47.5 -119.5l-88 -396q-10 -52 -10 -65q0 -36 21 -56t59 -20q48 0 77.5 28.5t47.5 106.5z" />
    <glyph glyph-name="beta" unicode="&#x3b2;" horiz-adv-x="854" 
d="M815 610l-80 -356q-32 -138 -107.5 -208.5t-183.5 -70.5q-139 0 -190 113l-104 -448h-242l350 1529q8 36 14 58.5t20 58.5t30 59t43.5 50.5t61 43.5t82 27t107.5 11q140 0 216.5 -59t76.5 -167q0 -45 -10 -84l-25 -104q-23 -95 -64 -136t-126 -59q76 -12 110.5 -49.5
t34.5 -105.5q0 -48 -14 -103zM498 295l73 323q11 50 11 68q0 36 -22.5 53t-76.5 17h-20l39 166h12q64 0 91 21.5t44 90.5l35 146q6 18 6 41q0 35 -18.5 58.5t-59.5 23.5q-46 0 -67 -22.5t-33 -70.5l-209 -911q-8 -36 -8 -55q0 -40 22.5 -62t63.5 -22q46 0 73 31t44 104z" />
    <glyph glyph-name="gamma" unicode="&#x3b3;" horiz-adv-x="774" 
d="M330 -360h-244l88 389q1 108 4.5 287.5t6.5 314t3 143.5q0 43 -14.5 56.5t-40.5 13.5h-14l45 196h80q39 0 66.5 -5t54.5 -18.5t41 -43.5t14 -76q0 -9 -7 -87t-19.5 -220.5t-22.5 -263.5l293 714h247l-495 -1024z" />
    <glyph glyph-name="delta" unicode="&#x3b4;" 
d="M451 266l100 441q8 40 8 61q0 29 -18 47.5t-52 18.5q-22 0 -39.5 -9.5t-27 -21t-19 -33t-12.5 -32.5t-8 -33l-100 -431q-11 -45 -11 -63q0 -31 20 -48.5t54 -17.5q43 0 66.5 26.5t38.5 94.5zM782 668l-86 -381q-37 -163 -121 -237.5t-233 -74.5q-150 0 -229.5 61
t-79.5 175q0 42 16 113l86 370q58 251 275 275q-62 38 -95.5 100.5t-33.5 114.5q0 24 6 51l8 31q5 24 17.5 49t38 54.5t60.5 52t91 38t123 15.5q139 0 203.5 -54.5t64.5 -130.5q0 -37 -29 -151h-233q26 96 26 133q0 51 -51 51q-53 0 -65 -57l-13 -56q-4 -20 -4 -30
q0 -88 138 -191q135 -99 135 -225q0 -34 -15 -96z" />
    <glyph glyph-name="epsilon" unicode="&#x3b5;" horiz-adv-x="831" 
d="M174 793l4 22q30 130 125.5 192t237.5 62q47 0 93.5 -10t93.5 -33t76.5 -68.5t29.5 -107.5q0 -45 -25 -141h-242q25 85 25 120q0 66 -72 66q-56 0 -79.5 -25.5t-41.5 -97.5q-8 -46 -8 -57q0 -39 29 -56.5t104 -17.5h27l-39 -166h-37q-98 0 -133 -29t-51 -104l-10 -45
q-7 -27 -7 -66q0 -32 20 -51.5t60 -19.5q52 0 77.5 37t41.5 98l25 106h241l-24 -104q-36 -156 -125 -236.5t-252 -80.5q-147 0 -226 55t-79 164q0 43 8 82l8 34q25 109 85 169t161 75q-133 17 -133 148q0 39 12 86z" />
    <glyph glyph-name="zeta" unicode="&#x3b6;" horiz-adv-x="661" 
d="M285 393l-21 -86q-8 -36 -8 -53q0 -33 21 -51.5t61 -18.5h76q88 0 132 -43t44 -118q0 -58 -64 -314h-225q49 192 49 242q0 29 -18 39t-68 10q-127 0 -189.5 65t-62.5 171q0 34 19 116l14 58q28 112 88.5 230.5t140.5 226.5t166.5 202.5t180.5 179.5h-345l46 197h596
l-44 -189q-56 -50 -112.5 -106.5t-134.5 -147t-141 -181.5t-119 -206t-82 -223z" />
    <glyph glyph-name="eta" unicode="&#x3b7;" horiz-adv-x="868" 
d="M4 0l186 803q7 27 7 51q0 22 -11.5 27.5t-42.5 5.5l37 164q68 10 119 10q28 0 48.5 -3t45.5 -13t41 -33.5t21 -59.5q63 58 112.5 83.5t116.5 25.5q88 0 138 -45t50 -123q0 -48 -28 -172l-250 -1081h-242l256 1105q10 48 10 66q0 76 -73 76q-49 0 -78.5 -32.5
t-46.5 -106.5l-172 -748h-244z" />
    <glyph glyph-name="theta" unicode="&#x3b8;" horiz-adv-x="808" 
d="M578 872l65 289q14 57 14 84q0 32 -18.5 50t-52.5 18q-50 0 -70 -29.5t-41 -122.5l-67 -289h170zM438 266l103 445h-170l-103 -437q-8 -33 -8 -63q0 -31 20 -48.5t54 -17.5q43 0 66 26.5t38 94.5zM598 1477q139 0 218 -60t79 -164q0 -43 -12 -102l-199 -864
q-37 -163 -121 -237.5t-233 -74.5q-151 0 -230.5 61t-79.5 175q0 38 17 113l196 850q35 155 125 229t240 74z" />
    <glyph glyph-name="iota" unicode="&#x3b9;" horiz-adv-x="448" 
d="M43 231l186 809h246l-178 -768q-10 -45 -10 -61q0 -22 12.5 -28.5t48.5 -6.5h8l-39 -174q-55 -6 -88 -6q-104 0 -151 34t-47 109q0 39 12 92z" />
    <glyph glyph-name="kappa" unicode="&#x3ba;" 
d="M743 770l-180 -199l166 -571h-274l-113 494l-113 -494h-239l237 1040h242l-92 -399l192 233q59 71 89.5 100.5t73.5 47.5t106 18h84l-45 -196q-44 0 -67 -12t-67 -62z" />
    <glyph glyph-name="lambda" unicode="&#x3bb;" horiz-adv-x="753" 
d="M705 178l-41 -176q-61 -12 -123 -12q-142 0 -142 178l17 446q-40 -86 -109 -239.5t-117 -264.5l-49 -110h-241l520 1034q6 133 6 160q0 70 -66 70q-26 0 -57 -9l47 205q15 3 32 7t23 5t16.5 2t27.5 1q37 0 68 -8t59.5 -27t44.5 -56t16 -90q0 -58 -5 -538.5t-5 -534.5
q0 -27 9 -37t28 -10q21 0 41 4z" />
    <glyph glyph-name="uni03BC" unicode="&#x3bc;" horiz-adv-x="911" 
d="M932 1040l-180 -784q-4 -19 -10.5 -47t-9 -37t-5.5 -25.5t-4 -22.5t-2.5 -16.5t-1.5 -18v-19.5q0 -27 3.5 -40t16.5 -30h-256q-12 17 -12 45q0 21 4 41q-22 -51 -47 -71.5t-66 -20.5q-34 0 -53.5 12.5t-36.5 44.5l-94 -411h-244l324 1400h242l-166 -727q-10 -52 -10 -65
q0 -37 19 -57.5t54 -20.5q47 0 76.5 33.5t46.5 107.5l168 729h244z" />
    <glyph glyph-name="nu" unicode="&#x3bd;" horiz-adv-x="735" 
d="M317 313l228 537q24 55 31.5 92.5t9.5 97.5h231v-20q0 -87 -53 -195l-397 -825h-238q12 897 12 1040h240z" />
    <glyph glyph-name="xi" unicode="&#x3be;" horiz-adv-x="700" 
d="M891 1249h-182q-112 0 -155.5 -35.5t-68.5 -144.5l-20 -86q-6 -24 -6 -45q0 -35 27.5 -50.5t97.5 -15.5h141l-41 -172h-152q-98 0 -141.5 -36.5t-62.5 -112.5l-58 -244q-8 -36 -8 -53q0 -33 21 -51.5t61 -18.5h76q88 0 132 -43t44 -118q0 -58 -64 -314h-225
q49 192 49 242q0 29 -18 39t-68 10q-127 0 -189.5 65t-62.5 171q0 34 19 116l53 221q25 105 81.5 152t162.5 63q-107 38 -107 140q0 40 13 90l14 63q28 132 152 181h-138l41 184h627z" />
    <glyph glyph-name="omicron" unicode="&#x3bf;" 
d="M801 741l-105 -454q-37 -163 -121 -237.5t-233 -74.5q-150 0 -229.5 61t-79.5 175q0 42 16 113l103 440q37 155 126 229t238 74q139 0 218 -59.5t79 -163.5q0 -44 -12 -103zM451 266l110 486q14 57 14 84q0 32 -18.5 49.5t-52.5 17.5q-50 0 -70 -29t-41 -122l-110 -478
q-11 -45 -11 -63q0 -31 20 -48.5t54 -17.5q43 0 66.5 26.5t38.5 94.5z" />
    <glyph glyph-name="pi" unicode="&#x3c0;" horiz-adv-x="978" 
d="M1032 1040l-41 -194h-71l-125 -551q-13 -59 -13 -66q0 -28 15.5 -39.5t52.5 -11.5h10l-43 -180h-74q-111 0 -161 39.5t-50 126.5q0 26 19 110l129 572h-188l-193 -846h-244l193 846h-72l43 194h813z" />
    <glyph glyph-name="rho" unicode="&#x3c1;" horiz-adv-x="835" 
d="M397 772l-110 -477q-6 -24 -6 -45q0 -39 20 -63.5t61 -24.5q31 0 53.5 12.5t35.5 36t18.5 38.5t11.5 38l113 485q4 24 4 35q0 38 -22.5 59t-63.5 21q-26 0 -46 -9.5t-31 -20.5t-20 -30t-11.5 -28.5t-6.5 -26.5zM827 737l-114 -501q-27 -112 -99 -184t-182 -72
q-75 0 -120.5 26t-71.5 84l-105 -450h-244l261 1126q36 159 127 231t268 72q137 0 215 -58.5t78 -174.5q0 -42 -13 -99z" />
    <glyph glyph-name="sigma1" unicode="&#x3c2;" horiz-adv-x="813" 
d="M801 649h-240l23 92q12 54 12 80q0 34 -22 53t-60 19q-20 0 -34 -4t-31 -17.5t-31 -43.5t-25 -76l-104 -445q-6 -27 -6 -53q0 -33 21 -51.5t61 -18.5h75q88 0 132 -43t44 -118q0 -62 -63 -314h-225q49 192 49 242q0 29 -18 39t-68 10q-127 0 -189.5 65t-62.5 171
q0 39 18 116l93 396q18 79 49 138t66 93t80 54.5t85.5 27t89.5 6.5q152 0 235 -56.5t83 -160.5q0 -36 -19 -121z" />
    <glyph glyph-name="sigma" unicode="&#x3c3;" horiz-adv-x="813" 
d="M387 725l-108 -469q-7 -28 -7 -43q0 -68 68 -68q86 0 109 113l108 469q6 24 6 51q0 78 -63 78q-25 0 -44.5 -10t-30.5 -21.5t-19.5 -33.5t-11 -33zM872 854h-163q82 -49 82 -139q0 -17 -7 -49l-92 -396q-36 -154 -126 -223.5t-236 -69.5q-132 0 -214.5 57t-82.5 175
q0 34 10 86l102 442q37 157 128 230t249 73h393z" />
    <glyph glyph-name="tau" unicode="&#x3c4;" horiz-adv-x="593" 
d="M500 844l-121 -520q-14 -58 -14 -86q0 -64 88 -64q5 0 45 4l-41 -176q-65 -12 -109 -12q-120 0 -176.5 44t-56.5 136q0 53 14 113l131 561h-57q-35 0 -97 -21l46 197q70 20 118 20h422l-45 -196h-147z" />
    <glyph glyph-name="upsilon" unicode="&#x3c5;" horiz-adv-x="854" 
d="M895 1040l-180 -782q-35 -152 -128.5 -217.5t-242.5 -65.5q-131 0 -217 63.5t-86 182.5q0 49 10 90l170 729h242l-180 -784q-4 -16 -4 -35q0 -29 20.5 -52.5t60.5 -23.5q47 0 76 37t37 76l180 782h242z" />
    <glyph glyph-name="phi" unicode="&#x3c6;" horiz-adv-x="1165" 
d="M813 903l-176 -762q41 0 73.5 13.5t52 32t35 50t22.5 55t16 60.5l77 340q17 74 17 107q0 49 -26 76.5t-91 27.5zM391 141l176 762q-51 0 -87 -17.5t-57.5 -53t-32 -64.5t-21.5 -76l-78 -340q-17 -74 -17 -106q0 -105 117 -105zM604 1065l74 313h246l-74 -313
q91 -2 155 -21.5t98.5 -53.5t49 -74.5t14.5 -92.5q0 -67 -26 -180l-70 -307q-14 -59 -26.5 -97t-35 -82.5t-54.5 -72t-80 -52.5t-116.5 -37.5t-158.5 -14.5l-80 -342h-246l80 342q-93 3 -157.5 21t-99.5 50.5t-49.5 71.5t-14.5 90q0 54 24 168l74 319q12 50 22 84t28 75
t40.5 67.5t57 54t79.5 44t107 27.5t139 13z" />
    <glyph glyph-name="chi" unicode="&#x3c7;" horiz-adv-x="798" 
d="M520 -373q-160 0 -160 133l2 486l-260 -608h-249l393 759l-17 406q-1 35 -15 50t-44 15q-12 0 -33 -6l41 180q15 3 32 7t22.5 5t16 2t27.5 1q73 0 126 -37t53 -121v-8l-13 -356l207 505h240l-328 -643l23 -520q1 -42 13 -53.5t36 -11.5q11 0 31 4l-41 -176
q-66 -13 -103 -13z" />
    <glyph glyph-name="psi" unicode="&#x3c8;" horiz-adv-x="1196" 
d="M1245 1040l-166 -723q-12 -50 -22 -83t-27.5 -72t-39 -63.5t-56 -49.5t-78.5 -38.5t-105.5 -22t-138.5 -8.5l-80 -340h-245l80 340q-91 0 -155.5 18.5t-98.5 53t-49 76t-15 95.5q0 67 27 185l145 632h244l-160 -688q-14 -65 -14 -106q0 -99 115 -99l282 1231h246
l-283 -1231q41 0 73 13t50 30t33 48.5t21.5 53.5t15.5 60l157 688h244z" />
    <glyph glyph-name="omega" unicode="&#x3c9;" horiz-adv-x="1220" 
d="M1204 709l-104 -449q-39 -165 -113 -225t-225 -60q-91 0 -151 43t-60 123q0 21 2 31q-30 -100 -94.5 -148.5t-171.5 -48.5q-122 0 -188 57t-66 171q0 49 16 121l96 413q38 162 139.5 232.5t258.5 70.5h84l-43 -188h-52q-115 0 -139 -102l-110 -478q-11 -46 -11 -65
q0 -30 17.5 -46t60.5 -16q42 0 63.5 32.5t35.5 94.5l94 408h245l-92 -393q-6 -30 -6 -56q0 -86 68 -86q25 0 42.5 9t29 29t17.5 38.5t13 50.5l105 453q4 12 4 37q0 47 -32 68.5t-79 21.5h-33l43 188h39q135 0 221 -62.5t86 -182.5q0 -47 -10 -86z" />
    <glyph glyph-name="iotadieresis" unicode="&#x3ca;" horiz-adv-x="448" 
d="M43 231l186 809h246l-178 -768q-10 -45 -10 -61q0 -22 12.5 -28.5t48.5 -6.5h8l-39 -174q-55 -6 -88 -6q-104 0 -151 34t-47 109q0 39 12 92zM772 1464l-57 -245h-238l58 245h237zM369 1464l-58 -245h-239l57 245h240z" />
    <glyph glyph-name="upsilondieresis" unicode="&#x3cb;" horiz-adv-x="854" 
d="M895 1040l-180 -782q-35 -152 -128.5 -217.5t-242.5 -65.5q-131 0 -217 63.5t-86 182.5q0 49 10 90l170 729h242l-180 -784q-4 -16 -4 -35q0 -29 20.5 -52.5t60.5 -23.5q47 0 76 37t37 76l180 782h242zM956 1464l-57 -245h-237l57 245h237zM553 1464l-57 -245h-240
l57 245h240z" />
    <glyph glyph-name="omicrontonos" unicode="&#x3cc;" 
d="M801 741l-105 -454q-37 -163 -121 -237.5t-233 -74.5q-150 0 -229.5 61t-79.5 175q0 42 16 113l103 440q37 155 126 229t238 74q139 0 218 -59.5t79 -163.5q0 -44 -12 -103zM451 266l110 486q14 57 14 84q0 32 -18.5 49.5t-52.5 17.5q-50 0 -70 -29t-41 -122l-110 -478
q-11 -45 -11 -63q0 -31 20 -48.5t54 -17.5q43 0 66.5 26.5t38.5 94.5zM954 1446l-299 -270h-184l184 270h299z" />
    <glyph glyph-name="upsilontonos" unicode="&#x3cd;" horiz-adv-x="854" 
d="M895 1040l-180 -782q-35 -152 -128.5 -217.5t-242.5 -65.5q-131 0 -217 63.5t-86 182.5q0 49 10 90l170 729h242l-180 -784q-4 -16 -4 -35q0 -29 20.5 -52.5t60.5 -23.5q47 0 76 37t37 76l180 782h242zM969 1446l-299 -270h-185l185 270h299z" />
    <glyph glyph-name="omegatonos" unicode="&#x3ce;" horiz-adv-x="1220" 
d="M1204 709l-104 -449q-39 -165 -113 -225t-225 -60q-91 0 -151 43t-60 123q0 21 2 31q-30 -100 -94.5 -148.5t-171.5 -48.5q-122 0 -188 57t-66 171q0 49 16 121l96 413q38 162 139.5 232.5t258.5 70.5h84l-43 -188h-52q-115 0 -139 -102l-110 -478q-11 -46 -11 -65
q0 -30 17.5 -46t60.5 -16q42 0 63.5 32.5t35.5 94.5l94 408h245l-92 -393q-6 -30 -6 -56q0 -86 68 -86q25 0 42.5 9t29 29t17.5 38.5t13 50.5l105 453q4 12 4 37q0 47 -32 68.5t-79 21.5h-33l43 188h39q135 0 221 -62.5t86 -182.5q0 -47 -10 -86zM1157 1446l-299 -270h-184
l184 270h299z" />
    <glyph glyph-name="afii10023" unicode="&#x401;" horiz-adv-x="854" 
d="M1034 1446l-51 -219h-434l-78 -340h410l-52 -219h-409l-103 -445h455l-51 -223h-721l334 1446h700zM1085 1808l-57 -247h-237l57 247h237zM676 1808l-58 -247h-239l57 247h240z" />
    <glyph glyph-name="afii10051" unicode="&#x402;" horiz-adv-x="1024" 
d="M545 227q52 0 78.5 26t44.5 101l45 191q10 38 10 69q0 66 -86 66q-52 0 -109 -31l-151 -649h-268l286 1237h-205l48 209h741l-47 -209h-268l-86 -371q83 31 182 31q239 0 239 -205q0 -62 -24 -160l-66 -286q-30 -132 -107.5 -189t-209.5 -57h-113l53 227h13z" />
    <glyph glyph-name="afii10052" unicode="&#x403;" 
d="M1042 1446l-51 -223h-440l-283 -1223h-268l334 1446h708zM1026 1837l-295 -274h-188l166 274h317z" />
    <glyph glyph-name="afii10053" unicode="&#x404;" horiz-adv-x="937" 
d="M1012 954h-262l24 113q19 81 19 104q0 101 -111 101q-64 0 -100 -36.5t-56 -121.5l-59 -254h391l-49 -215h-391l-68 -289q-12 -59 -12 -88q0 -44 28.5 -68t82.5 -24q69 0 103.5 38t57.5 140l43 189h262l-38 -174q-26 -120 -62 -196.5t-92 -122t-127 -63.5t-176 -18
q-189 0 -271.5 66t-82.5 194q0 51 22 152l166 713q50 209 156 296t313 87q167 0 254.5 -59t87.5 -173q0 -55 -21 -147z" />
    <glyph glyph-name="afii10054" unicode="&#x405;" horiz-adv-x="917" 
d="M967 1022h-267l23 100q8 33 8 66q0 86 -102 86q-44 0 -76.5 -26t-47.5 -65t-21.5 -70.5t-6.5 -55.5q0 -76 49 -117l168 -141q98 -83 128 -141t30 -148q0 -114 -59 -283q-46 -132 -144.5 -195t-259.5 -63q-178 0 -274.5 69t-96.5 195q0 53 23 150l31 127h264l-29 -117
q-20 -84 -20 -129q0 -41 32.5 -65.5t86.5 -24.5q80 0 108 51q29 50 46.5 125.5t17.5 116.5q0 85 -84 151l-144 115q-72 59 -106.5 118.5t-34.5 143.5q0 192 102 334q104 148 338 148q175 0 266 -60.5t91 -177.5q0 -37 -13 -94z" />
    <glyph glyph-name="afii10055" unicode="&#x406;" horiz-adv-x="466" 
d="M598 1446l-334 -1446h-264l334 1446h264z" />
    <glyph glyph-name="afii10056" unicode="&#x407;" horiz-adv-x="466" 
d="M598 1446l-334 -1446h-264l334 1446h264zM809 1808l-57 -247h-220l58 247h219zM500 1808l-58 -247h-219l58 247h219z" />
    <glyph glyph-name="afii10057" unicode="&#x408;" 
d="M950 1446l-258 -1118q-47 -203 -137.5 -282t-269.5 -79q-154 0 -234 61.5t-80 178.5q0 55 19 135l26 117h248l-28 -123q-15 -69 -15 -88q0 -31 21 -49.5t59 -18.5q51 0 77 32t46 118l258 1116h268z" />
    <glyph glyph-name="afii10058" unicode="&#x409;" horiz-adv-x="1433" 
d="M1100 1446l-133 -582h196q113 0 181.5 -55.5t68.5 -163.5q0 -53 -16 -131l-54 -227q-36 -159 -110.5 -223t-241.5 -64h-491l282 1229h-174l-198 -852q-26 -110 -66.5 -185t-97 -116t-120 -58.5t-146.5 -17.5h-64l53 227h23q73 0 106 43.5t58 151.5l235 1024h709zM918 651
l-105 -444h129q77 0 105 24t47 105l39 168q10 48 10 67q0 43 -24.5 61.5t-84.5 18.5h-116z" />
    <glyph glyph-name="afii10059" unicode="&#x40a;" horiz-adv-x="1447" 
d="M1110 1446l-129 -576h197q112 0 180.5 -55.5t68.5 -163.5q0 -53 -16 -131l-55 -233q-36 -159 -110.5 -223t-241.5 -64h-494l152 659h-244l-152 -659h-266l334 1446h266l-133 -576h244l133 576h266zM932 657l-107 -450h129q77 0 105 24t47 105l41 174q10 48 10 68
q0 43 -24 61t-84 18h-117z" />
    <glyph glyph-name="afii10060" unicode="&#x40b;" horiz-adv-x="1024" 
d="M979 1446l-47 -209h-268l-86 -371q83 31 182 31q239 0 239 -205q0 -62 -24 -160l-123 -532h-266l127 545q10 38 10 69q0 66 -86 66q-52 0 -109 -31l-151 -649h-268l286 1237h-205l48 209h741z" />
    <glyph glyph-name="afii10061" unicode="&#x40c;" horiz-adv-x="966" 
d="M334 1446h266l-131 -567h76q68 0 93 36.5t50 149.5l37 162q12 55 35 95.5t49.5 64t63 37t70 18t75.5 4.5h100l-49 -217q-51 0 -69.5 -20t-36.5 -103l-21 -96q-23 -111 -61.5 -164t-108.5 -68q53 -18 77.5 -48.5t24.5 -84.5q0 -40 -12 -86l-45 -194q-12 -52 -12 -84
q0 -27 13 -40.5t44 -13.5l-53 -227h-102q-193 0 -193 158q0 45 21 131l45 196q14 68 14 95q0 44 -22.5 63t-75.5 19h-78l-152 -662h-266zM1071 1837l-295 -274h-188l166 274h317z" />
    <glyph glyph-name="afii10062" unicode="&#x40e;" horiz-adv-x="854" 
d="M795 1446h278l-528 -1116q-32 -67 -62 -118t-55.5 -86t-54 -59t-51 -37t-53 -20t-53 -8.5t-58.5 -1.5h-76l53 227h49q64 0 92 21t54 80l-107 1118h281l12 -741zM608 1761q-8 -24 -8 -51q0 -59 64 -59q43 0 65.5 25.5t36.5 84.5h188q-27 -114 -97 -173.5t-216 -59.5
q-227 0 -227 162q0 38 8 71h186z" />
    <glyph glyph-name="afii10145" unicode="&#x40f;" horiz-adv-x="980" 
d="M272 0h-272l334 1446h266l-285 -1229h244l285 1229h266l-334 -1446h-274l-66 -287h-229z" />
    <glyph glyph-name="afii10017" unicode="&#x410;" horiz-adv-x="894" 
d="M510 1446h305l-39 -1446h-262l16 236h-245l-90 -236h-275zM365 459h184l45 620z" />
    <glyph glyph-name="afii10018" unicode="&#x411;" horiz-adv-x="952" 
d="M1042 1446l-51 -223h-440l-82 -359h197q112 0 180.5 -55.5t68.5 -163.5q0 -53 -16 -131l-53 -227q-36 -159 -110.5 -223t-241.5 -64h-494l334 1446h708zM420 651l-105 -444h129q77 0 105 24t47 105l39 168q10 48 10 67q0 43 -24.5 61.5t-83.5 18.5h-117z" />
    <glyph glyph-name="afii10019" unicode="&#x412;" horiz-adv-x="978" 
d="M334 1446h409q54 0 92.5 -3.5t81 -16t69 -35t44 -63t17.5 -97.5q0 -46 -13 -103l-20 -92q-29 -133 -76 -185.5t-152 -72.5q136 -30 136 -141q0 -58 -21 -154l-41 -184q-11 -47 -22 -80.5t-38.5 -78.5t-64.5 -72.5t-100.5 -47.5t-145.5 -20h-489zM553 1239l-84 -365h72
q105 0 145 26.5t57 107.5l19 86q10 45 10 65q0 43 -26.5 61.5t-86.5 18.5h-106zM420 666l-107 -457h95q39 0 60 1t45 6t35.5 13.5t24.5 25t21 40t16 59.5l39 170q8 40 8 64q0 43 -27.5 60.5t-94.5 17.5h-115z" />
    <glyph glyph-name="afii10020" unicode="&#x413;" 
d="M1042 1446l-51 -223h-440l-283 -1223h-268l334 1446h708z" />
    <glyph glyph-name="afii10021" unicode="&#x414;" horiz-adv-x="1089" 
d="M721 0h-576l-65 -287h-227l116 504h13q157 0 217 256l225 973h709l-283 -1229h151l-116 -504h-230zM465 473q-38 -180 -117 -256h236l233 1012h-176z" />
    <glyph glyph-name="afii10022" unicode="&#x415;" horiz-adv-x="854" 
d="M1034 1446l-51 -219h-434l-78 -340h410l-52 -219h-409l-103 -445h455l-51 -223h-721l334 1446h700z" />
    <glyph glyph-name="afii10024" unicode="&#x416;" horiz-adv-x="1452" 
d="M819 1446h266l-135 -584h76q68 0 93 37t50 150l41 178q12 55 35 95.5t49.5 64t63 37t70 18t75.5 4.5h101l-50 -217q-51 0 -69.5 -20t-36.5 -103l-25 -113q-23 -111 -61.5 -163.5t-108.5 -67.5q53 -18 78 -48.5t25 -84.5q0 -36 -13 -86l-40 -178q-13 -57 -13 -84
q0 -54 58 -54l-54 -227h-102q-193 0 -193 158q0 45 21 131l41 180q14 68 14 94q0 44 -22.5 63t-75.5 19h-78l-147 -645h-267l148 645h-98q-68 0 -93.5 -36.5t-50.5 -149.5l-53 -240q-12 -55 -35 -95.5t-49.5 -64t-63 -37t-70 -18t-75.5 -4.5h-100l51 227q51 0 69.5 20
t36.5 103l39 180q43 203 195 232q-41 18 -59.5 48.5t-18.5 84.5q0 44 12 90l27 107q12 53 12 84q0 27 -13 40t-44 13l49 217h102q193 0 193 -158q0 -45 -21 -131l-26 -119q-14 -68 -14 -94q0 -44 22.5 -63t75.5 -19h51z" />
    <glyph glyph-name="afii10025" unicode="&#x417;" horiz-adv-x="929" 
d="M424 954h-268l37 152q35 143 94.5 226t139 115t198.5 32q182 0 278 -71.5t96 -211.5q0 -43 -14 -111l-22 -102q-21 -98 -74.5 -152t-153.5 -71q129 -23 129 -156q0 -57 -22 -147l-33 -142q-24 -104 -67.5 -174.5t-103.5 -106.5t-122.5 -50.5t-142.5 -14.5
q-187 0 -276 74.5t-89 210.5q0 58 12 111l39 178h271l-43 -185q-13 -63 -13 -79q0 -101 117 -101q40 0 67.5 11t44 36t25.5 49t19 66l28 123q15 66 15 96q0 43 -20.5 64.5t-71.5 21.5h-215l49 215h190q76 0 117.5 31t62.5 119l21 88q8 36 8 69q0 109 -117 109
q-32 0 -56.5 -9.5t-39 -21.5t-26.5 -38.5t-18 -46t-15 -58.5z" />
    <glyph glyph-name="afii10026" unicode="&#x418;" horiz-adv-x="999" 
d="M795 0h-267l185 805l-408 -635l-39 -170h-266l332 1446h266l-182 -793l409 635l37 158h266z" />
    <glyph glyph-name="afii10027" unicode="&#x419;" horiz-adv-x="999" 
d="M795 0h-267l185 805l-408 -635l-39 -170h-266l332 1446h266l-182 -793l409 635l37 158h266zM705 1761q-9 -45 -9 -51q0 -59 64 -59q43 0 65.5 25.5t36.5 84.5h189q-27 -114 -97.5 -173.5t-216.5 -59.5q-227 0 -227 162q0 38 8 71h187z" />
    <glyph glyph-name="afii10028" unicode="&#x41a;" horiz-adv-x="966" 
d="M334 1446h266l-131 -567h76q68 0 93 36.5t50 149.5l37 162q12 55 35 95.5t49.5 64t63 37t70 18t75.5 4.5h100l-49 -217q-51 0 -69.5 -20t-36.5 -103l-21 -96q-23 -111 -61.5 -164t-108.5 -68q53 -18 77.5 -48.5t24.5 -84.5q0 -40 -12 -86l-45 -194q-12 -52 -12 -84
q0 -27 13 -40.5t44 -13.5l-53 -227h-102q-193 0 -193 158q0 45 21 131l45 196q14 68 14 95q0 44 -22.5 63t-75.5 19h-78l-152 -662h-266z" />
    <glyph glyph-name="afii10029" unicode="&#x41b;" horiz-adv-x="970" 
d="M1100 1446l-334 -1446h-266l284 1229h-176l-198 -852q-26 -110 -66.5 -185t-97 -116t-120 -58.5t-146.5 -17.5h-64l53 227h23q73 0 106 43.5t58 151.5l235 1024h709z" />
    <glyph glyph-name="afii10030" unicode="&#x41c;" horiz-adv-x="1409" 
d="M1538 1446l-334 -1446h-266l313 1253l-522 -1253h-248l49 1253l-268 -1253h-262l334 1446h434l-63 -1012l405 1012h428z" />
    <glyph glyph-name="afii10031" unicode="&#x41d;" horiz-adv-x="980" 
d="M1110 1446l-334 -1446h-266l152 662h-244l-152 -662h-266l334 1446h266l-131 -567h244l131 567h266z" />
    <glyph glyph-name="afii10032" unicode="&#x41e;" horiz-adv-x="980" 
d="M1030 1057l-162 -705q-16 -71 -35 -122.5t-53 -103.5t-79 -84.5t-115 -52.5t-160 -20q-367 0 -367 283q0 61 25 172l154 659q34 146 84.5 230t136.5 125t221 41q178 0 274.5 -73t96.5 -208q0 -45 -21 -141zM604 369l164 704q14 59 14 101q0 49 -30 75.5t-84 26.5
q-69 0 -102 -36.5t-60 -154.5l-160 -692q-20 -90 -20 -114q0 -101 120 -101q33 0 57.5 10t39 23t27 42.5t18.5 50.5t16 65z" />
    <glyph glyph-name="afii10033" unicode="&#x41f;" horiz-adv-x="980" 
d="M1110 1446l-334 -1446h-266l283 1229h-244l-283 -1229h-266l334 1446h776z" />
    <glyph glyph-name="afii10034" unicode="&#x420;" horiz-adv-x="935" 
d="M334 1446h465q113 0 181.5 -55.5t68.5 -163.5q0 -48 -17 -131l-47 -207q-36 -159 -110.5 -223t-241.5 -64h-225l-140 -602h-268zM553 1233l-98 -424h129q77 0 104.5 23.5t46.5 105.5l33 147q10 48 10 68q0 43 -24.5 61.5t-83.5 18.5h-117z" />
    <glyph glyph-name="afii10035" unicode="&#x421;" horiz-adv-x="937" 
d="M1004 920h-263l33 147q19 81 19 104q0 101 -111 101q-64 0 -100 -36.5t-56 -121.5l-176 -758q-12 -59 -12 -88q0 -44 28.5 -68t82.5 -24q69 0 103.5 38t57.5 140l43 189h262l-38 -174q-26 -120 -62 -196.5t-92 -122t-127 -63.5t-176 -18q-189 0 -271.5 66t-82.5 194
q0 51 22 152l166 713q50 209 156 296t313 87q167 0 254.5 -59t87.5 -173q0 -55 -21 -147z" />
    <glyph glyph-name="afii10036" unicode="&#x422;" 
d="M1036 1446l-47 -209h-268l-287 -1237h-268l287 1237h-267l47 209h803z" />
    <glyph glyph-name="afii10037" unicode="&#x423;" horiz-adv-x="854" 
d="M795 1446h278l-528 -1116q-32 -67 -62 -118t-55.5 -86t-54 -59t-51 -37t-53 -20t-53 -8.5t-58.5 -1.5h-76l53 227h49q64 0 92 21t54 80l-107 1118h281l12 -741z" />
    <glyph glyph-name="afii10038" unicode="&#x424;" horiz-adv-x="1359" 
d="M780 1475h269l-50 -213h131q277 0 277 -222q0 -67 -16 -129l-111 -462q-56 -232 -322 -232h-200l-56 -237h-268l55 237h-131q-276 0 -276 221q0 67 16 129l111 463q56 232 321 232h201zM952 1047l-147 -623h88q78 0 103 22.5t46 106.5l84 346q11 53 11 68
q0 43 -25.5 61.5t-85.5 18.5h-74zM535 424l147 623h-88q-55 0 -81.5 -10.5t-40.5 -35.5t-28 -83l-84 -347q-10 -48 -10 -67q0 -43 25.5 -61.5t85.5 -18.5h74z" />
    <glyph glyph-name="afii10039" unicode="&#x425;" horiz-adv-x="980" 
d="M1153 1446l-442 -684l151 -762h-280l-68 489l-274 -489h-306l492 778l-137 668h282l60 -395l219 395h303z" />
    <glyph glyph-name="afii10040" unicode="&#x426;" horiz-adv-x="1064" 
d="M696 0h-696l332 1446h266l-283 -1229h244l283 1229h266l-283 -1229h152l-117 -504h-229z" />
    <glyph glyph-name="afii10041" unicode="&#x427;" horiz-adv-x="903" 
d="M698 0h-266l150 645q-83 -31 -183 -31q-239 0 -239 205q0 62 24 160l107 467h266l-111 -479q-10 -38 -10 -70q0 -66 86 -66q52 0 109 31l135 584h266z" />
    <glyph glyph-name="afii10042" unicode="&#x428;" horiz-adv-x="1443" 
d="M1239 0h-1239l332 1446h266l-285 -1229h222l284 1229h266l-284 -1229h221l285 1229h266z" />
    <glyph glyph-name="afii10043" unicode="&#x429;" horiz-adv-x="1529" 
d="M1161 0h-1161l332 1446h266l-285 -1229h222l284 1229h266l-284 -1229h221l285 1229h266l-285 -1229h154l-117 -504h-229z" />
    <glyph glyph-name="afii10044" unicode="&#x42a;" horiz-adv-x="1110" 
d="M774 1446l-131 -582h197q113 0 181.5 -55.5t68.5 -163.5q0 -48 -17 -131l-53 -227q-36 -159 -110.5 -223t-241.5 -64h-494l285 1237h-279l49 209h545zM594 651l-105 -444h129q77 0 105 24t47 105l39 168q10 48 10 67q0 43 -24.5 61.5t-83.5 18.5h-117z" />
    <glyph glyph-name="afii10045" unicode="&#x42b;" horiz-adv-x="1372" 
d="M600 1446l-131 -582h197q112 0 180.5 -55.5t68.5 -163.5q0 -53 -16 -131l-53 -227q-36 -159 -110.5 -223t-241.5 -64h-494l334 1446h266zM420 651l-105 -444h129q77 0 105 24t47 105l39 168q10 48 10 67q0 43 -24.5 61.5t-83.5 18.5h-117zM1501 1446l-334 -1446h-264
l334 1446h264z" />
    <glyph glyph-name="afii10046" unicode="&#x42c;" horiz-adv-x="935" 
d="M600 1446l-131 -582h197q112 0 180.5 -55.5t68.5 -163.5q0 -53 -16 -131l-53 -227q-36 -159 -110.5 -223t-241.5 -64h-494l334 1446h266zM420 651l-105 -444h129q77 0 105 24t47 105l39 168q10 48 10 67q0 43 -24.5 61.5t-83.5 18.5h-117z" />
    <glyph glyph-name="afii10047" unicode="&#x42d;" horiz-adv-x="937" 
d="M74 543h262l-37 -164q-18 -76 -18 -105q0 -100 110 -100q64 0 100 36.5t56 121.5l74 313h-392l50 215h391l53 230q12 58 12 88q0 44 -28 68t-82 24q-69 0 -104 -38t-58 -140l-31 -138h-262l27 123q26 120 62 196.5t91.5 122.5t126.5 63.5t176 17.5q189 0 272 -66.5
t83 -193.5q0 -47 -23 -152l-166 -713q-50 -209 -156 -296t-313 -87q-167 0 -254.5 59t-87.5 173q0 55 21 147z" />
    <glyph glyph-name="afii10048" unicode="&#x42e;" horiz-adv-x="1431" 
d="M1481 1057l-162 -705q-16 -71 -35 -122.5t-53 -103.5t-79 -84.5t-115 -52.5t-160 -20q-367 0 -367 283q0 61 25 172l55 238h-172l-152 -662h-266l334 1446h266l-131 -567h170l49 204q34 146 84.5 230t136.5 125t221 41q178 0 274.5 -73t96.5 -208q0 -49 -20 -141z
M1055 369l164 704q14 59 14 101q0 49 -30.5 75.5t-84.5 26.5q-69 0 -102 -36.5t-60 -154.5l-159 -692q-21 -94 -21 -114q0 -49 31 -75t90 -26q33 0 57.5 10t39 23t27 42.5t18.5 50.5t16 65z" />
    <glyph glyph-name="afii10049" unicode="&#x42f;" horiz-adv-x="1007" 
d="M135 494q43 202 193 231q-95 52 -95 182q0 48 17 131l29 121q36 159 110.5 223t241.5 64h506l-334 -1446h-266l147 641h-149q-68 0 -93.5 -36.5t-50.5 -149.5l-53 -236q-12 -55 -35 -95.5t-49.5 -64t-63 -37t-70 -18t-75.5 -4.5h-100l51 227q51 0 69.5 20t36.5 103z
M733 854l90 385h-141q-77 0 -105 -24t-47 -105l-24 -109q-10 -48 -10 -67q0 -43 24.5 -61.5t83.5 -18.5h129z" />
    <glyph glyph-name="afii10065" unicode="&#x430;" 
d="M657 0h-256q-12 17 -12 45q0 22 4 47q-84 -115 -209 -115q-86 0 -132 49.5t-46 143.5q0 103 30 195t79 141q32 32 87.5 62.5t94.5 45.5l233 91l13 49q12 52 12 75q0 66 -78 66q-49 0 -69.5 -32t-34.5 -105l-6 -31h-224l15 68q31 145 110 208.5t228 63.5q145 0 225 -51.5
t80 -145.5q0 -49 -29 -174l-102 -440q-4 -17 -11 -48.5t-9.5 -44.5t-6.5 -32.5t-5 -33t-1 -27.5q0 -41 20 -70zM418 221l65 285q-93 -38 -127.5 -59t-58.5 -52q-20 -27 -33.5 -73.5t-13.5 -85.5q0 -68 57 -68q39 0 111 53z" />
    <glyph glyph-name="afii10066" unicode="&#x431;" 
d="M801 741l-105 -454q-37 -163 -121 -237.5t-233 -74.5q-150 0 -229.5 61t-79.5 175q0 42 16 113l105 450q23 99 43.5 165.5t49.5 127.5t68 104t92.5 80.5t127.5 71.5q92 41 123.5 63t39.5 60h238q-7 -44 -27 -80.5t-40.5 -59t-59.5 -45.5t-62 -32.5t-72 -28.5t-67 -26
q-116 -47 -168 -93t-71 -116q92 102 225 102q98 0 158.5 -60t60.5 -163q0 -44 -12 -103zM451 266l110 486q14 57 14 84q0 32 -18.5 49.5t-52.5 17.5q-50 0 -70 -29t-41 -122l-110 -478q-11 -45 -11 -63q0 -31 20 -48.5t54 -17.5q43 0 66.5 26.5t38.5 94.5z" />
    <glyph glyph-name="afii10067" unicode="&#x432;" horiz-adv-x="862" 
d="M227 1040h396q128 0 184.5 -43.5t56.5 -136.5q0 -52 -20 -143q-20 -83 -66 -124.5t-135 -45.5q129 -16 129 -131q0 -32 -10 -80l-27 -111q-30 -128 -96.5 -176.5t-228.5 -48.5h-420zM432 879l-59 -258h94q67 0 91.5 15t37.5 75q18 79 18 102q-1 35 -27 50.5t-79 15.5h-76
zM336 459l-70 -297h105q68 0 95 21t44 93l16 66q6 24 6 45q0 37 -24 54.5t-78 17.5h-94z" />
    <glyph glyph-name="afii10068" unicode="&#x433;" horiz-adv-x="675" 
d="M793 1040l-37 -161h-324l-203 -879h-239l237 1040h566z" />
    <glyph glyph-name="afii10069" unicode="&#x434;" horiz-adv-x="962" 
d="M618 0h-489l-66 -283h-219l103 445q65 0 117.5 55.5t80.5 175.5l150 647h676l-203 -878h109l-103 -445h-221zM387 393q-22 -95 -50.5 -147t-68.5 -84h258l166 717h-192z" />
    <glyph glyph-name="afii10070" unicode="&#x435;" 
d="M743 471h-415l-45 -207q-4 -20 -4 -33q0 -69 77 -69q41 0 65.5 26t37.5 86l16 70h236l-9 -39q-35 -171 -114.5 -249.5t-243.5 -78.5q-149 0 -226 61t-77 179q0 61 33 205l76 342q15 71 41 122.5t68.5 93t108.5 62.5t154 21q143 0 218 -59.5t75 -174.5q0 -51 -22 -145z
M541 637l26 125q8 36 8 53q0 68 -73 68q-43 0 -66 -24t-37 -81l-32 -141h174z" />
    <glyph glyph-name="afii10072" unicode="&#x436;" horiz-adv-x="1296" 
d="M80 268l31 135q17 73 55 108t100 40q-69 19 -69 94q0 31 8 64l10 47q8 36 8 53q0 57 -71 57l41 181q36 4 65 4q117 0 169 -38.5t54 -115.5q0 -41 -12 -90l-10 -41q-10 -48 -10 -70q0 -37 20 -53t66 -16h34l95 413h241l-94 -413h55q53 0 76.5 25.5t40.5 101.5l21 98
q24 106 87 151.5t197 45.5q28 0 86 -5l-41 -180q-47 0 -70 -18.5t-36 -75.5l-19 -82q-13 -61 -45 -93t-86 -44q42 -4 66 -32t24 -73q0 -30 -8 -63l-24 -98q-9 -41 -9 -54q0 -57 72 -57l-41 -180q-25 -4 -65 -4q-117 0 -169.5 38t-54.5 115q0 36 13 90l22 93q10 48 10 69
q0 37 -20 53.5t-66 16.5h-53l-110 -465h-240l106 465h-77q-53 0 -76.5 -25.5t-40.5 -101.5l-33 -152q-24 -106 -87.5 -151t-197.5 -45q-40 0 -86 4l41 180q47 0 70.5 18.5t36.5 75.5z" />
    <glyph glyph-name="afii10073" unicode="&#x437;" horiz-adv-x="808" 
d="M246 610h174q57 0 86.5 22t42.5 81l10 45q8 36 8 55q0 78 -84 78q-30 0 -50 -10t-31 -30t-14.5 -31.5t-8.5 -33.5l-25 -98h-243l24 100q17 71 49.5 123t69 81t85.5 46t90 22t91 5q59 0 109 -12.5t92 -38t66 -71.5t24 -107q0 -43 -16 -111q-17 -73 -56.5 -120.5
t-124.5 -67.5q58 -11 85.5 -46.5t27.5 -82.5q0 -44 -25 -150q-35 -146 -120 -214.5t-260 -68.5q-146 0 -226 59t-80 171q0 45 11 88l18 78h242l-17 -72q-8 -40 -8 -61q0 -82 82 -82q97 0 121 108q20 93 20 109q0 76 -110 76h-168z" />
    <glyph glyph-name="afii10074" unicode="&#x438;" horiz-adv-x="876" 
d="M682 0h-242l131 571l-315 -465l-25 -106h-241l237 1040h242l-131 -567l317 459l25 108h242z" />
    <glyph glyph-name="afii10075" unicode="&#x439;" horiz-adv-x="876" 
d="M682 0h-242l131 571l-315 -465l-25 -106h-241l237 1040h242l-131 -567l317 459l25 108h242zM551 1333q-6 -27 -6 -47q0 -28 14.5 -39.5t46.5 -11.5q41 0 59.5 20.5t32.5 77.5h166q-13 -52 -30.5 -88t-49 -67t-82 -46.5t-120.5 -15.5q-207 0 -207 146q0 29 10 71h166z" />
    <glyph glyph-name="afii10076" unicode="&#x43a;" horiz-adv-x="872" 
d="M803 770l-17 -74q-13 -61 -45.5 -92.5t-87.5 -44.5q43 -4 66.5 -32t23.5 -72q0 -31 -8 -64l-24 -106q-9 -40 -9 -54q0 -57 72 -57l-41 -180q-29 -4 -65 -4q-117 0 -169.5 38t-54.5 115q0 36 13 90l22 101q10 48 10 69q0 37 -20 53.5t-66 16.5h-63l-111 -473h-239
l239 1040h242l-94 -405h65q53 0 76.5 25.5t40.5 101.5l21 90q24 106 87 151.5t197 45.5q28 0 86 -5l-41 -180q-47 0 -70 -18.5t-36 -75.5z" />
    <glyph glyph-name="afii10077" unicode="&#x43b;" horiz-adv-x="907" 
d="M-49 174h20q59 0 88 25t43 86l174 755h676l-239 -1040h-242l203 879h-193l-145 -631q-30 -126 -105.5 -192t-220.5 -66q-54 0 -100 8z" />
    <glyph glyph-name="afii10078" unicode="&#x43c;" horiz-adv-x="1241" 
d="M1047 0h-242l215 842l-387 -842h-225q-2 770 -2 852l-179 -852h-237l237 1040h385l-16 -702l309 702h381z" />
    <glyph glyph-name="afii10079" unicode="&#x43d;" horiz-adv-x="864" 
d="M670 0h-242l109 473h-197l-109 -473h-241l239 1040h242l-94 -405h198l93 405h241z" />
    <glyph glyph-name="afii10080" unicode="&#x43e;" 
d="M801 741l-105 -454q-37 -163 -121 -237.5t-233 -74.5q-150 0 -229.5 61t-79.5 175q0 42 16 113l103 440q37 155 126 229t238 74q139 0 218 -59.5t79 -163.5q0 -44 -12 -103zM451 266l110 486q14 57 14 84q0 32 -18.5 49.5t-52.5 17.5q-50 0 -70 -29t-41 -122l-110 -478
q-11 -45 -11 -63q0 -31 20 -48.5t54 -17.5q43 0 66.5 26.5t38.5 94.5z" />
    <glyph glyph-name="afii10081" unicode="&#x43f;" horiz-adv-x="864" 
d="M670 0h-242l203 879h-197l-203 -879h-241l239 1040h680z" />
    <glyph glyph-name="afii10082" unicode="&#x440;" horiz-adv-x="854" 
d="M227 1040h246l-24 -96q83 117 213 117q94 0 145 -49t51 -140q0 -51 -27 -170l-102 -446q-32 -139 -105.5 -209t-181.5 -70q-139 0 -190 113l-105 -450h-243zM498 297l92 408q12 52 12 77q0 34 -20.5 53t-57.5 19q-49 0 -79 -32.5t-50 -114.5l-94 -406q-8 -36 -8 -55
q0 -40 23.5 -62t64.5 -22q46 0 73 31t44 104z" />
    <glyph glyph-name="afii10083" unicode="&#x441;" 
d="M799 649h-240l23 92q12 54 12 80q0 34 -22 53t-60 19q-20 0 -34 -4t-31 -17.5t-31 -43.5t-25 -76l-100 -428q-17 -75 -17 -95q0 -32 24 -50.5t64 -18.5q46 0 70 28.5t43 104.5l29 121h239l-18 -82q-26 -116 -49.5 -172t-59.5 -94q-88 -91 -258 -91q-158 0 -238.5 60.5
t-80.5 177.5q0 51 18 137l90 398q18 79 48.5 138t65.5 93t81 54.5t86.5 27t89.5 6.5q152 0 235 -56.5t83 -160.5q0 -36 -19 -121z" />
    <glyph glyph-name="afii10084" unicode="&#x442;" horiz-adv-x="716" 
d="M113 879l37 161h684l-37 -161h-222l-202 -879h-242l203 879h-221z" />
    <glyph glyph-name="afii10085" unicode="&#x443;" horiz-adv-x="724" 
d="M856 1040l-526 -1177q-36 -82 -73 -128t-95.5 -71.5t-145.5 -25.5q-82 0 -170 18l80 190q55 -14 86 -14q106 0 154 166q-25 927 -29 1042h238l-17 -669l254 669h244z" />
    <glyph glyph-name="afii10086" unicode="&#x444;" horiz-adv-x="1214" 
d="M961 1446l-95 -406h54q139 0 218 -59.5t79 -163.5q0 -39 -13 -102l-94 -404q-37 -163 -121 -237t-233 -74h-129l-82 -360h-244l82 360h-53q-139 0 -218 59.5t-79 163.5q0 45 12 103l94 403q37 163 121.5 237t233.5 74h129l94 406h244zM387 758l-102 -445q-13 -53 -13 -84
q0 -32 19 -49.5t53 -17.5h76l166 717h-94q-43 0 -66.5 -26.5t-38.5 -94.5zM862 283l103 444q12 49 12 84q0 32 -19 50t-53 18h-76l-165 -717h94q43 0 66 26.5t38 94.5z" />
    <glyph glyph-name="afii10087" unicode="&#x445;" horiz-adv-x="761" 
d="M840 1040l-295 -477l104 -563h-256l-35 420l-202 -420h-258l348 563l-82 477h246l22 -348l162 348h246z" />
    <glyph glyph-name="afii10088" unicode="&#x446;" horiz-adv-x="892" 
d="M549 0h-559l239 1040h242l-203 -878h189l202 878h242l-203 -878h109l-102 -445h-222z" />
    <glyph glyph-name="afii10089" unicode="&#x447;" horiz-adv-x="825" 
d="M440 1040l-75 -329q-13 -56 -13 -78q0 -30 18 -42.5t56 -12.5q42 0 100 20l103 442h241l-239 -1040h-242l103 444q-89 -28 -201 -28q-82 0 -137.5 35.5t-55.5 113.5q0 51 27 156l74 319h241z" />
    <glyph glyph-name="afii10090" unicode="&#x448;" horiz-adv-x="1202" 
d="M1008 0h-1018l237 1040h242l-203 -878h148l202 878h242l-203 -878h148l203 878h241z" />
    <glyph glyph-name="afii10091" unicode="&#x449;" horiz-adv-x="1241" 
d="M897 0h-907l239 1040h242l-203 -878h148l202 878h242l-203 -878h148l203 878h241l-202 -878h108l-102 -445h-222z" />
    <glyph glyph-name="afii10092" unicode="&#x44a;" horiz-adv-x="878" 
d="M569 1040l-88 -385h154q95 0 153 -47t58 -139q0 -49 -15 -111l-26 -116q-30 -133 -93 -187.5t-204 -54.5h-418l201 879h-211l37 161h452zM442 489l-75 -327h92q55 0 75.5 17.5t32.5 76.5l29 127q6 30 6 49q0 31 -17 44t-59 13h-84z" />
    <glyph glyph-name="afii10093" unicode="&#x44b;" horiz-adv-x="1173" 
d="M469 1040l-88 -385h154q95 0 152.5 -47t57.5 -139q0 -53 -14 -111l-26 -116q-30 -133 -93 -187.5t-204 -54.5h-418l237 1040h242zM342 489l-76 -327h92q56 0 76.5 18t32.5 76l29 127q6 30 6 49q0 31 -17 44t-59 13h-84zM1219 1040l-240 -1040h-246l240 1040h246z" />
    <glyph glyph-name="afii10094" unicode="&#x44c;" horiz-adv-x="778" 
d="M469 1040l-88 -385h154q95 0 152.5 -47t57.5 -139q0 -53 -14 -111l-26 -116q-30 -133 -93 -187.5t-204 -54.5h-418l237 1040h242zM342 489l-76 -327h92q56 0 76.5 18t32.5 76l29 127q6 30 6 49q0 31 -17 44t-59 13h-84z" />
    <glyph glyph-name="afii10095" unicode="&#x44d;" horiz-adv-x="813" 
d="M211 449l39 161h278l29 131q1 8 5 24t6.5 29.5t2.5 22.5q0 74 -84 74q-30 0 -49.5 -7t-31.5 -26.5t-16.5 -34.5t-12.5 -49l-21 -86h-241l22 94q19 83 60 141.5t95.5 88t108 41.5t113.5 12q131 0 215 -58.5t84 -168.5q0 -43 -12 -101l-107 -461q-36 -155 -120.5 -228
t-239.5 -73q-318 0 -318 238q0 33 9 76l18 82h242l-19 -78q-12 -46 -12 -70q0 -67 82 -67q56 0 81 35.5t40 101.5l35 156h-281z" />
    <glyph glyph-name="afii10096" unicode="&#x44e;" horiz-adv-x="1202" 
d="M1192 741l-105 -454q-37 -163 -121 -237.5t-233 -74.5q-150 0 -229.5 61t-79.5 175q0 42 16 113l35 149h-135l-109 -473h-241l239 1040h242l-94 -405h135l31 129q37 155 126 229t238 74q139 0 218 -59.5t79 -163.5q0 -44 -12 -103zM842 266l110 486q15 61 15 84
q0 32 -19 49.5t-53 17.5q-50 0 -70 -29t-41 -122l-110 -478q-10 -41 -10 -63q0 -31 19.5 -48.5t53.5 -17.5q43 0 66.5 26.5t38.5 94.5z" />
    <glyph glyph-name="afii10097" unicode="&#x44f;" horiz-adv-x="878" 
d="M80 268l14 60q28 133 146 145q-76 50 -76 154q0 52 14 110l15 62q30 133 92.5 187t203.5 54h435l-242 -1040h-240l93 399h-97q-53 0 -75.5 -25.5t-40.5 -101.5l-19 -86q-24 -106 -87.5 -151t-197.5 -45q-40 0 -86 4l41 180q47 0 70.5 18.5t36.5 75.5zM395 618
q0 -57 86 -57h92l72 318h-90q-59 0 -88.5 -19.5t-40.5 -75.5l-25 -116q-6 -30 -6 -50z" />
    <glyph glyph-name="afii10071" unicode="&#x451;" 
d="M743 471h-415l-45 -207q-4 -20 -4 -33q0 -69 77 -69q41 0 65.5 26t37.5 86l16 70h236l-9 -39q-35 -171 -114.5 -249.5t-243.5 -78.5q-149 0 -226 61t-77 179q0 61 33 205l76 342q15 71 41 122.5t68.5 93t108.5 62.5t154 21q143 0 218 -59.5t75 -174.5q0 -51 -22 -145z
M541 637l26 125q8 36 8 53q0 68 -73 68q-43 0 -66 -24t-37 -81l-32 -141h174zM946 1464l-57 -245h-238l58 245h237zM573 1464l-57 -245h-240l58 245h239z" />
    <glyph glyph-name="afii10099" unicode="&#x452;" horiz-adv-x="854" 
d="M279 -154q40 0 65 7t38.5 25t18 31t11.5 44l182 792q10 48 10 66q0 37 -19.5 56.5t-54.5 19.5q-49 0 -78 -32.5t-46 -106.5l-173 -748h-243l266 1165h-109l37 162h109l29 119h247l-28 -119h227l-37 -162h-227l-47 -200q86 96 213 96q88 0 138 -45t50 -123q0 -43 -29 -172
l-188 -819q-33 -141 -105 -202.5t-210 -61.5q-40 0 -95 6z" />
    <glyph glyph-name="afii10100" unicode="&#x453;" horiz-adv-x="675" 
d="M793 1040l-37 -161h-324l-203 -879h-239l237 1040h566zM838 1446l-299 -270h-185l185 270h299z" />
    <glyph glyph-name="afii10101" unicode="&#x454;" 
d="M641 614l-37 -161h-282l-31 -129q-17 -75 -17 -95q0 -32 24 -50.5t64 -18.5q46 0 70 28.5t43 104.5l19 82h241l-10 -43q-28 -118 -50.5 -173.5t-58.5 -92.5q-88 -91 -258 -91q-158 0 -238.5 60.5t-80.5 177.5q0 51 18 137l90 398q18 79 48.5 138t65.5 93t81 54.5t86.5 27
t89.5 6.5q152 0 235 -56.5t83 -160.5q0 -36 -19 -121l-8 -37h-240l13 49q12 54 12 80q0 34 -22 53t-60 19q-20 0 -34 -4t-31 -17.5t-31 -43.5t-25 -76l-33 -138h283z" />
    <glyph glyph-name="afii10102" unicode="&#x455;" horiz-adv-x="768" 
d="M758 711h-211l16 73q6 27 6 47q0 68 -77 68q-47 0 -75 -34.5t-28 -94.5q0 -45 45 -82l119 -98q66 -56 95.5 -112.5t29.5 -131.5q0 -177 -97.5 -271.5t-279.5 -94.5q-140 0 -212.5 51.5t-72.5 152.5q0 42 23 146l8 37h225l-12 -50q-14 -55 -14 -92q0 -32 21.5 -51.5
t58.5 -19.5q54 0 87 45.5t33 117.5q0 36 -18 62.5t-76 75.5l-92 77q-108 89 -108 218q0 146 97 230.5t263 84.5q129 0 201.5 -51.5t72.5 -145.5q0 -30 -10 -75z" />
    <glyph glyph-name="afii10103" unicode="&#x456;" horiz-adv-x="425" 
d="M569 1446l-57 -246h-246l58 246h245zM475 1040l-239 -1040h-246l239 1040h246z" />
    <glyph glyph-name="afii10104" unicode="&#x457;" horiz-adv-x="425" 
d="M475 1040l-239 -1040h-246l239 1040h246zM698 1446l-57 -246h-201l58 246h200zM403 1446l-57 -246h-203l58 246h202z" />
    <glyph glyph-name="afii10105" unicode="&#x458;" horiz-adv-x="425" 
d="M565 1446l-57 -244h-244l58 244h243zM471 1040l-262 -1138q-33 -141 -105 -202.5t-210 -61.5q-42 0 -97 6l47 202q40 0 65 7t38.5 25t18 31t11.5 44l250 1087h244z" />
    <glyph glyph-name="afii10106" unicode="&#x459;" horiz-adv-x="1261" 
d="M952 1040l-88 -385h154q95 0 153 -47t58 -139q0 -49 -15 -111l-26 -116q-30 -133 -93 -187.5t-204 -54.5h-420l203 879h-193l-145 -631q-30 -126 -105.5 -192t-220.5 -66q-54 0 -100 8l41 176h20q59 0 88 25t43 86l174 755h676zM825 489l-75 -327h92q55 0 75.5 17.5
t32.5 76.5l29 127q6 30 6 49q0 31 -17 44t-59 13h-84z" />
    <glyph glyph-name="afii10107" unicode="&#x45a;" horiz-adv-x="1216" 
d="M909 1040l-90 -401h154q95 0 153 -47t58 -139q0 -49 -15 -111l-24 -100q-30 -133 -93 -187.5t-204 -54.5h-420l111 477h-197l-111 -477h-241l239 1040h242l-92 -401h199l90 401h241zM780 477l-73 -315h92q55 0 75.5 17.5t32.5 76.5l27 115q6 30 6 49q0 31 -17 44t-59 13
h-84z" />
    <glyph glyph-name="afii10108" unicode="&#x45b;" horiz-adv-x="854" 
d="M768 1327l-37 -162h-227l-47 -200q86 96 213 96q88 0 138 -45t50 -123q0 -43 -29 -172l-165 -721h-242l172 745q10 48 10 66q0 37 -19.5 56.5t-54.5 19.5q-49 0 -78 -32.5t-46 -106.5l-173 -748h-243l266 1165h-109l37 162h109l29 119h247l-28 -119h227z" />
    <glyph glyph-name="afii10109" unicode="&#x45c;" horiz-adv-x="872" 
d="M803 770l-17 -74q-13 -61 -45.5 -92.5t-87.5 -44.5q43 -4 66.5 -32t23.5 -72q0 -31 -8 -64l-24 -106q-9 -40 -9 -54q0 -57 72 -57l-41 -180q-29 -4 -65 -4q-117 0 -169.5 38t-54.5 115q0 36 13 90l22 101q10 48 10 69q0 37 -20 53.5t-66 16.5h-63l-111 -473h-239
l239 1040h242l-94 -405h65q53 0 76.5 25.5t40.5 101.5l21 90q24 106 87 151.5t197 45.5q28 0 86 -5l-41 -180q-47 0 -70 -18.5t-36 -75.5zM913 1446l-299 -270h-184l184 270h299z" />
    <glyph glyph-name="afii10110" unicode="&#x45e;" horiz-adv-x="724" 
d="M856 1040l-526 -1177q-36 -82 -73 -128t-95.5 -71.5t-145.5 -25.5q-82 0 -170 18l80 190q55 -14 86 -14q106 0 154 166q-25 927 -29 1042h238l-17 -669l254 669h244zM467 1333q-6 -27 -6 -47q0 -28 14.5 -39.5t46.5 -11.5q41 0 59.5 20.5t32.5 77.5h166
q-13 -52 -30.5 -88t-49 -67t-82 -46.5t-120.5 -15.5q-207 0 -207 146q0 29 10 71h166z" />
    <glyph glyph-name="afii10193" unicode="&#x45f;" horiz-adv-x="856" 
d="M215 0h-225l239 1040h242l-203 -878h189l202 878h242l-239 -1040h-226l-65 -283h-221z" />
    <glyph glyph-name="afii10050" unicode="&#x490;" 
d="M842 1733h266l-117 -510h-440l-283 -1223h-268l334 1446h442z" />
    <glyph glyph-name="afii10098" unicode="&#x491;" horiz-adv-x="675" 
d="M612 1305h242l-98 -426h-324l-203 -879h-239l237 1040h326z" />
    <glyph glyph-name="Wgrave" unicode="&#x1e80;" horiz-adv-x="1449" 
d="M1655 1446l-613 -1446h-280l88 991l-383 -991h-285l70 1446h268l-104 -1090l405 1090h252l-100 -1090l403 1090h279zM1106 1561h-178l-234 272h301z" />
    <glyph glyph-name="wgrave" unicode="&#x1e81;" horiz-adv-x="1150" 
d="M1288 1040l-481 -1040h-229l47 629l-273 -629h-231l29 1040h237l-53 -688l289 688h192l-49 -688l285 688h237zM852 1176h-176l-275 270h314z" />
    <glyph glyph-name="Wacute" unicode="&#x1e82;" horiz-adv-x="1449" 
d="M1655 1446l-613 -1446h-280l88 991l-383 -991h-285l70 1446h268l-104 -1090l405 1090h252l-100 -1090l403 1090h279zM1280 1837l-295 -274h-188l166 274h317z" />
    <glyph glyph-name="wacute" unicode="&#x1e83;" horiz-adv-x="1150" 
d="M1288 1040l-481 -1040h-229l47 629l-273 -629h-231l29 1040h237l-53 -688l289 688h192l-49 -688l285 688h237zM1081 1446l-299 -270h-184l184 270h299z" />
    <glyph glyph-name="Wdieresis" unicode="&#x1e84;" horiz-adv-x="1449" 
d="M1655 1446l-613 -1446h-280l88 991l-383 -991h-285l70 1446h268l-104 -1090l405 1090h252l-100 -1090l403 1090h279zM1341 1808l-57 -247h-237l57 247h237zM932 1808l-58 -247h-239l57 247h240z" />
    <glyph glyph-name="wdieresis" unicode="&#x1e85;" horiz-adv-x="1150" 
d="M1288 1040l-481 -1040h-229l47 629l-273 -629h-231l29 1040h237l-53 -688l289 688h192l-49 -688l285 688h237zM1126 1464l-57 -245h-238l58 245h237zM723 1464l-57 -245h-240l57 245h240z" />
    <glyph glyph-name="Ygrave" unicode="&#x1ef2;" horiz-adv-x="854" 
d="M1081 1446l-522 -1018l-100 -428h-273l105 446l-60 1000h273l-12 -729l303 729h286zM797 1561h-179l-233 272h301z" />
    <glyph glyph-name="ygrave" unicode="&#x1ef3;" horiz-adv-x="724" 
d="M856 1040l-526 -1177q-36 -82 -73 -128t-95.5 -71.5t-145.5 -25.5q-82 0 -170 18l80 190q55 -14 86 -14q106 0 154 166q-25 927 -29 1042h238l-17 -669l254 669h244zM651 1176h-176l-274 270h313z" />
    <glyph glyph-name="endash" unicode="&#x2013;" horiz-adv-x="862" 
d="M852 698l-47 -200h-729l47 200h729z" />
    <glyph glyph-name="emdash" unicode="&#x2014;" horiz-adv-x="1280" 
d="M1270 698l-45 -202h-1149l47 202h1147z" />
    <glyph glyph-name="quoteleft" unicode="&#x2018;" horiz-adv-x="399" 
d="M575 1446l-213 -279h121l-61 -266h-242l62 266l235 279h98z" />
    <glyph glyph-name="quoteright" unicode="&#x2019;" horiz-adv-x="395" 
d="M551 1446l-62 -266l-227 -279h-102l205 279h-121l61 266h246z" />
    <glyph glyph-name="quotesinglbase" unicode="&#x201a;" horiz-adv-x="395" 
d="M279 266l-62 -266l-227 -279h-103l205 279h-121l62 266h246z" />
    <glyph glyph-name="quotedblleft" unicode="&#x201c;" horiz-adv-x="768" 
d="M944 1446l-203 -279h119l-61 -266h-246l61 266l230 279h100zM575 1446l-213 -279h121l-61 -266h-242l62 266l235 279h98z" />
    <glyph glyph-name="quotedblright" unicode="&#x201d;" horiz-adv-x="768" 
d="M924 1446l-62 -266l-233 -279h-101l215 279h-122l61 266h242zM551 1446l-62 -266l-227 -279h-102l205 279h-121l61 266h246z" />
    <glyph glyph-name="quotedblbase" unicode="&#x201e;" horiz-adv-x="768" 
d="M651 266l-61 -266l-234 -279h-100l215 279h-123l62 266h241zM279 266l-62 -266l-227 -279h-103l205 279h-121l62 266h246z" />
    <glyph glyph-name="dagger" unicode="&#x2020;" horiz-adv-x="894" 
d="M895 786h-236l-235 -1017h-244l236 1017h-238l60 254h237l92 406h244l-92 -406h235z" />
    <glyph glyph-name="daggerdbl" unicode="&#x2021;" horiz-adv-x="894" 
d="M752 188h-236l-98 -419h-244l98 419h-237l57 254h238l90 385h-238l58 254h237l84 365h244l-84 -365h235l-57 -254h-235l-91 -385h236z" />
    <glyph glyph-name="bullet" unicode="&#x2022;" horiz-adv-x="681" 
d="M731 979l-121 -528h-526l121 528h526z" />
    <glyph glyph-name="ellipsis" unicode="&#x2026;" horiz-adv-x="2048" 
d="M1759 205l-45 -205h-198l45 205h198zM1077 205l-45 -205h-198l47 205h196zM395 205l-47 -205h-196l45 205h198z" />
    <glyph glyph-name="perthousand" unicode="&#x2030;" horiz-adv-x="2052" 
d="M1452 639l-94 -408q-31 -136 -95.5 -188.5t-172.5 -52.5q-114 0 -172 44.5t-58 129.5q0 40 14 106l97 414q13 56 28.5 92.5t44 72.5t77 53.5t116.5 17.5q107 0 168 -43t61 -119q0 -62 -14 -119zM1282 1419l-866 -1511l-121 45l868 1513zM700 1094l-94 -408
q-31 -138 -92.5 -190t-175.5 -52q-112 0 -170.5 44.5t-58.5 129.5q0 38 16 107l96 420q26 116 85.5 172.5t178.5 56.5q108 0 169 -43t61 -119q0 -56 -15 -118zM1190 221l104 457q9 34 9 55q0 60 -74 60q-41 0 -61 -21.5t-33 -81.5l-103 -459q-8 -46 -8 -53q0 -61 74 -61
q40 0 59 22t33 82zM440 676l103 459q8 40 8 53q0 59 -74 59q-40 0 -59.5 -21t-32.5 -81l-104 -459q-9 -45 -9 -53q0 -60 74 -60q41 0 61 21.5t33 81.5zM2054 639l-94 -408q-31 -136 -95 -188.5t-175 -52.5q-228 0 -228 174q0 36 15 106l94 414q12 55 28 92.5t45 73t77 53
t116 17.5q108 0 169.5 -43t61.5 -119q0 -62 -14 -119zM1792 221l104 457q9 34 9 55q0 60 -74 60q-41 0 -61 -21.5t-33 -81.5l-103 -459q-8 -46 -8 -53q0 -61 74 -61q40 0 59 22t33 82z" />
    <glyph glyph-name="guilsinglleft" unicode="&#x2039;" horiz-adv-x="344" 
d="M373 881l-49 -211l-111 -90l72 -84l-45 -193l-166 191l45 188z" />
    <glyph glyph-name="guilsinglright" unicode="&#x203a;" horiz-adv-x="344" 
d="M342 686l-43 -188l-256 -199l49 211l111 90l-70 84l43 193z" />
    <glyph glyph-name="fraction" unicode="&#x2044;" horiz-adv-x="256" 
d="M690 1419l-864 -1511l-121 45l868 1513z" />
    <glyph glyph-name="zero.superior" unicode="&#x2070;" horiz-adv-x="598" 
d="M217 1094l111 462q28 115 93.5 165.5t186.5 50.5q99 0 153 -44t54 -124q0 -41 -12 -95l-98 -411q-36 -148 -95 -204t-186 -56q-102 0 -161.5 41t-59.5 110q0 48 14 105zM496 1542l-115 -469q-10 -44 -10 -63q0 -24 16.5 -38t42.5 -14q43 0 63 22t33 75l117 481
q10 45 10 61q0 54 -63 54q-40 0 -59.5 -23t-34.5 -86z" />
    <glyph glyph-name="four.superior" unicode="&#x2074;" horiz-adv-x="598" 
d="M786 1753l-133 -584h70l-35 -141h-67l-41 -178h-156l41 178h-291l33 133l381 592h198zM608 1608l-258 -439h148z" />
    <glyph glyph-name="five.superior" unicode="&#x2075;" horiz-adv-x="598" 
d="M825 1755l-32 -135h-285l-59 -231q49 71 157 71q71 0 105 -31t34 -100q0 -35 -24 -158l-27 -141q-15 -86 -78 -139t-184 -53q-221 0 -221 161q0 55 25 140h165q-26 -85 -26 -133t57 -48q44 0 65.5 24.5t39.5 107.5l24 114q10 58 10 62q0 47 -61 47q-30 0 -47 -13t-27 -45
h-168l121 500h436z" />
    <glyph glyph-name="six.superior" unicode="&#x2076;" horiz-adv-x="598" 
d="M799 1518h-158q14 54 14 77q0 56 -65 56q-38 0 -61.5 -23t-39.5 -90l-34 -143q60 57 151 57q64 0 99.5 -35.5t35.5 -97.5q0 -36 -16 -107l-33 -137q-29 -121 -91.5 -179t-180.5 -58q-217 0 -217 161q0 32 14 95l100 426q7 31 23 84q21 85 88 126.5t166 41.5
q110 0 166.5 -34.5t56.5 -115.5q0 -48 -18 -104zM412 1229l-35 -154q-6 -30 -6 -55q0 -55 67 -55q37 0 57.5 23.5t32.5 74.5l39 160q8 31 8 49q0 53 -63 53q-39 0 -64 -21.5t-36 -74.5z" />
    <glyph glyph-name="seven.superior" unicode="&#x2077;" horiz-adv-x="598" 
d="M350 1753h539l-37 -139q-152 -161 -265 -358t-167 -406h-195q178 466 459 768h-217l-27 -107h-149z" />
    <glyph glyph-name="eight.superior" unicode="&#x2078;" horiz-adv-x="598" 
d="M803 1561l-17 -78q-15 -71 -40.5 -105.5t-81.5 -52.5q63 -32 63 -102q0 -62 -45 -219q-25 -88 -87 -127t-161 -39q-107 0 -169 42t-62 119q0 35 10 80l23 99q18 78 48.5 112t84.5 47q-62 35 -62 101q0 29 6 53l23 100q22 97 87 139t173 42q94 0 153.5 -40t59.5 -110
q0 -31 -6 -61zM412 1194l-35 -139q-4 -14 -4 -39q0 -24 17.5 -37.5t45.5 -13.5q47 0 64 18t28 66q39 155 39 174q0 51 -65 51q-70 0 -90 -80zM502 1575l-23 -96q-4 -20 -4 -37q0 -53 60 -53q38 0 55.5 18.5t30.5 75.5q20 92 20 112q0 54 -55 54q-35 0 -54.5 -15.5
t-29.5 -58.5z" />
    <glyph glyph-name="nine.superior" unicode="&#x2079;" horiz-adv-x="598" 
d="M205 1092h157q-14 -54 -14 -78q0 -56 66 -56q38 0 61 23t39 90l35 143q-60 -57 -152 -57q-64 0 -99.5 35.5t-35.5 97.5q0 32 17 107l32 137q29 121 92 179.5t181 58.5q108 0 162.5 -41.5t54.5 -120.5q0 -26 -15 -94l-100 -426q-17 -73 -33.5 -116t-46.5 -71
q-70 -65 -196 -65q-110 0 -167 34t-57 115q0 46 19 105zM592 1386l35 154q6 30 6 55q0 56 -68 56q-37 0 -57 -23.5t-33 -75.5l-39 -159q-8 -31 -8 -50q0 -53 64 -53q39 0 64 21.5t36 74.5z" />
    <glyph glyph-name="parenleft.superior" unicode="&#x207d;" horiz-adv-x="374" 
d="M690 1890l-31 -137q-86 -37 -122 -84t-62 -158l-100 -432q-15 -62 -15 -108q0 -24 3 -40.5t20.5 -52.5t52.5 -83l-28 -131q-114 79 -164.5 146t-50.5 138q0 57 14 123l117 500q34 141 113 206t253 113z" />
    <glyph glyph-name="parenright.superior" unicode="&#x207e;" horiz-adv-x="374" 
d="M98 664l31 137q86 37 122 84t62 157l101 433q14 58 14 108q0 24 -3 40.5t-20.5 52.5t-52.5 83l29 131q114 -79 164.5 -146t50.5 -138q0 -57 -14 -123l-117 -500q-34 -141 -113.5 -206t-253.5 -113z" />
    <glyph glyph-name="zero.inferior" unicode="&#x2080;" horiz-adv-x="598" 
d="M-55 -63l110 462q28 115 94 165t187 50q99 0 153 -44t54 -124q0 -36 -13 -94l-98 -411q-36 -148 -94.5 -204t-185.5 -56q-102 0 -162 41t-60 110q0 43 15 105zM223 385l-114 -469q-11 -48 -11 -63q0 -24 17 -38t43 -14q43 0 63 22t33 75l117 481q10 45 10 61q0 54 -64 54
q-40 0 -59.5 -23t-34.5 -86z" />
    <glyph glyph-name="one.inferior" unicode="&#x2081;" horiz-adv-x="598" 
d="M436 596l-207 -903h-166l156 684q-61 -43 -147 -49l30 129q64 18 109.5 47t99.5 92h125z" />
    <glyph glyph-name="two.inferior" unicode="&#x2082;" horiz-adv-x="598" 
d="M371 -307h-490q16 70 27.5 109t31 86t46 80t67 71.5t99.5 81.5q100 72 129.5 105t42.5 98l12 61q6 30 6 43q0 53 -63 53q-36 0 -54.5 -17.5t-27.5 -62.5l-23 -106h-160l25 108q25 106 83.5 155.5t160.5 49.5q106 0 165.5 -44.5t59.5 -119.5q0 -27 -6 -57l-13 -68
q-13 -75 -43.5 -124t-89.5 -97l-143 -118q-95 -77 -115 -148h301z" />
    <glyph glyph-name="three.inferior" unicode="&#x2083;" horiz-adv-x="598" 
d="M-49 -23h155l-10 -55q-6 -30 -6 -53q0 -62 68 -62q36 0 56.5 23t31.5 74l22 106q4 24 4 33q0 80 -100 80h-35l27 106h33q65 0 96 22t49 91l14 55q4 20 4 31q0 57 -65 57q-37 0 -56 -19.5t-32 -72.5l-17 -65h-155l14 63q27 119 85.5 170t176.5 51q104 0 158.5 -40
t54.5 -117q0 -16 -8 -56l-12 -59q-18 -86 -57.5 -118.5t-112.5 -39.5q102 -23 102 -127q0 -30 -10 -75l-20 -95q-22 -105 -82.5 -154.5t-176.5 -49.5q-106 0 -163.5 41.5t-57.5 119.5q0 43 13 90z" />
    <glyph glyph-name="four.inferior" unicode="&#x2084;" horiz-adv-x="598" 
d="M518 596l-133 -584h70l-35 -141h-68l-41 -178h-155l41 178h-291l33 133l380 592h199zM340 451l-258 -439h147z" />
    <glyph glyph-name="five.inferior" unicode="&#x2085;" horiz-adv-x="598" 
d="M555 598l-33 -135h-284l-60 -232q25 36 67.5 54t90.5 18q71 0 105 -31t34 -100q0 -35 -24 -158l-27 -141q-15 -86 -78 -139t-184 -53q-221 0 -221 161q0 59 24 140h166q-27 -88 -27 -134q0 -47 58 -47q44 0 65 24t39 107l25 115q10 57 10 62q0 47 -61 47q-30 0 -47 -13
t-27 -45h-168l121 500h436z" />
    <glyph glyph-name="six.inferior" unicode="&#x2086;" horiz-adv-x="598" 
d="M530 360h-157q14 54 14 78q0 56 -65 56q-38 0 -61.5 -23t-39.5 -90l-35 -143q60 57 152 57q64 0 99.5 -35.5t35.5 -97.5q0 -36 -16 -107l-33 -137q-29 -121 -91.5 -179t-180.5 -58q-108 0 -163 41t-55 120q0 28 15 95l100 425q7 31 23 84q21 85 88 126.5t166 41.5
q110 0 166.5 -34t56.5 -115q0 -46 -19 -105zM143 66l-34 -154q-7 -35 -7 -55q0 -56 68 -56q37 0 57 23.5t33 75.5l39 159q8 31 8 50q0 53 -63 53q-39 0 -64.5 -21.5t-36.5 -74.5z" />
    <glyph glyph-name="seven.inferior" unicode="&#x2087;" horiz-adv-x="598" 
d="M78 596h538l-36 -139q-152 -161 -265.5 -358.5t-167.5 -405.5h-194q178 466 459 768h-217l-27 -107h-150z" />
    <glyph glyph-name="eight.inferior" unicode="&#x2088;" horiz-adv-x="598" 
d="M535 403l-17 -77q-15 -71 -41 -105.5t-82 -52.5q64 -33 64 -102q0 -63 -45 -220q-25 -88 -87 -126.5t-161 -38.5q-107 0 -169.5 42t-62.5 119q0 30 11 80l22 98q18 78 48.5 112.5t84.5 47.5q-61 34 -61 101q0 29 6 53l23 100q22 97 87 138.5t173 41.5q94 0 153.5 -39.5
t59.5 -109.5q0 -32 -6 -62zM143 37l-34 -139q-5 -17 -5 -39q0 -24 18 -38t46 -14q47 0 64 18t28 66q39 155 39 175q0 51 -66 51q-70 0 -90 -80zM233 418l-22 -96q-4 -20 -4 -37q0 -54 59 -54q38 0 55.5 19t30.5 76q21 97 21 112q0 54 -56 54q-35 0 -54.5 -15.5t-29.5 -58.5z
" />
    <glyph glyph-name="nine.inferior" unicode="&#x2089;" horiz-adv-x="598" 
d="M-63 -66h157q-14 -54 -14 -77q0 -56 65 -56q38 0 61.5 23t39.5 90l35 143q-60 -57 -152 -57q-64 0 -99.5 35.5t-35.5 97.5q0 36 16 107l33 137q29 121 91.5 179t180.5 58q217 0 217 -161q0 -32 -14 -95l-100 -426q-17 -73 -33.5 -115.5t-46.5 -70.5q-70 -65 -197 -65
q-110 0 -166.5 34t-56.5 115q0 45 19 104zM324 229l34 154q7 35 7 55q0 56 -68 56q-37 0 -57 -23.5t-33 -75.5l-39 -159q-8 -31 -8 -50q0 -53 63 -53q39 0 64.5 21.5t36.5 74.5z" />
    <glyph glyph-name="parenleft.inferior" unicode="&#x208d;" horiz-adv-x="374" 
d="M424 733l-31 -137q-86 -37 -122 -84t-62 -158l-100 -432q-15 -62 -15 -108q0 -24 3 -40.5t20.5 -52.5t52.5 -83l-29 -132q-114 79 -164.5 146.5t-50.5 138.5q0 53 15 123l116 500q34 141 113.5 206t253.5 113z" />
    <glyph glyph-name="parenright.inferior" unicode="&#x208e;" horiz-adv-x="374" 
d="M-180 -494l30 138q86 37 122.5 84t62.5 157l100 432q15 62 15 109q0 24 -3 40.5t-20.5 52.5t-52.5 83l28 131q114 -79 164.5 -146t50.5 -138q0 -57 -14 -123l-117 -500q-34 -142 -113.5 -207t-252.5 -113z" />
    <glyph glyph-name="Euro" unicode="&#x20ac;" horiz-adv-x="985" 
d="M1135 1346l-101 -216q-50 56 -101 79.5t-120 23.5q-61 0 -95.5 -17t-63 -69.5t-52.5 -157.5l-22 -96h342l-62 -137h-311l-25 -101h285l-59 -137h-256l-23 -98q-14 -63 -14 -105q0 -135 149 -135q69 0 135 26t154 89l-59 -258q-160 -68 -326 -68q-157 0 -244.5 73
t-87.5 204q0 69 33 209l14 63h-121l60 137h92l23 99h-125l63 139h94l25 100q39 159 76 237t100 128q106 80 276 80q192 0 347 -92z" />
    <glyph glyph-name="afii61289" unicode="&#x2113;" horiz-adv-x="860" 
d="M676 332l121 -137q-122 -122 -213.5 -170t-204.5 -48q-120 0 -186 62.5t-66 175.5q0 38 12 111l-65 -43l-76 182q179 102 209 123l84 309q71 261 163 372t242 111q112 0 179 -65t67 -174q0 -70 -25 -148t-69 -137q-68 -91 -163.5 -173t-278.5 -214l-17 -55
q-20 -73 -20 -133q0 -95 77 -95q49 0 103.5 34.5t126.5 111.5zM463 717q141 133 210.5 226.5t69.5 176.5q0 34 -17 53t-48 19q-49 0 -83.5 -52t-66.5 -175z" />
    <glyph glyph-name="afii61352" unicode="&#x2116;" horiz-adv-x="1613" 
d="M1153 1446l-334 -1446h-336l-6 1083l-227 -1083h-250l334 1446h342l14 -1061l219 1061h244zM1729 1165l-95 -407q-31 -137 -93.5 -189.5t-174.5 -52.5t-170.5 44.5t-58.5 129.5q0 38 16 107l96 420q26 116 85.5 172.5t178.5 56.5q108 0 169 -43t61 -119q0 -62 -14 -119z
M1468 748l103 458q8 40 8 54q0 59 -74 59q-40 0 -59.5 -21t-32.5 -81l-104 -459q-9 -45 -9 -53q0 -60 74 -60q41 0 61 21.5t33 81.5zM1552 395l-36 -162h-494l37 162h493z" />
    <glyph glyph-name="trademark" unicode="&#x2122;" horiz-adv-x="1292" 
d="M1370 1446l-158 -678h-131l129 537l-237 -537h-105l17 545l-123 -545h-133l159 678h197q-4 -321 -6 -434l195 434h196zM725 1446l-29 -125h-149l-127 -553h-139l127 553h-154l31 125h440z" />
    <glyph glyph-name="Omega" unicode="&#x2126;" horiz-adv-x="1099" 
d="M971 213l-49 -213h-428l53 215q58 41 90 106t63 199l121 510q23 98 23 127q0 53 -34.5 83t-94.5 30q-72 0 -109 -39.5t-65 -161.5l-76 -332q-7 -29 -18.5 -81t-15.5 -68t-11 -49t-9 -45t-5 -34.5t-4 -38.5t-1 -36q0 -117 41 -170l-51 -215h-411l49 213h250
q-109 112 -109 340q0 110 33 262l61 266q49 211 156 296t321 85q182 0 279.5 -74t97.5 -212q0 -74 -22 -170l-60 -254q-48 -211 -109.5 -332t-189.5 -207h234z" />
    <glyph glyph-name="estimated" unicode="&#x212e;" horiz-adv-x="1449" 
d="M1452 606h-1085q-7 -36 -7 -65q0 -172 93 -265.5t278 -93.5q147 0 250 62t178 205l258 -43q-44 -78 -72.5 -118t-72.5 -87q-214 -224 -561 -224q-290 0 -453.5 149.5t-163.5 416.5q0 179 59 334t162.5 265t249.5 173t314 63q279 0 434 -146t155 -409q0 -96 -16 -217z
M403 809h805v37q0 160 -92 249t-258 89q-170 0 -286 -93t-169 -282z" />
    <glyph glyph-name="onethird" unicode="&#x2153;" horiz-adv-x="1449" 
d="M1219 1417l-865 -1511l-121 45l869 1513zM612 1362l-206 -903h-166l155 684q-61 -43 -147 -49l31 129q64 18 109 47t99 92h125zM842 285h155l-10 -56q-6 -30 -6 -53q0 -61 68 -61q37 0 57 22.5t31 73.5l22 106q4 24 4 33q0 80 -100 80h-35l27 107h32q65 0 96.5 21.5
t49.5 90.5l14 56q4 20 4 30q0 58 -65 58q-37 0 -56 -19.5t-32 -73.5l-17 -65h-155l14 63q27 119 85.5 170.5t176.5 51.5q104 0 158.5 -40.5t54.5 -117.5q0 -15 -8 -55l-12 -60q-18 -86 -57.5 -118.5t-112.5 -39.5q102 -23 102 -127q0 -30 -10 -75l-21 -94
q-22 -106 -82 -155.5t-176 -49.5q-106 0 -163.5 42t-57.5 120q0 47 12 90z" />
    <glyph glyph-name="twothirds" unicode="&#x2154;" horiz-adv-x="1449" 
d="M1274 1417l-864 -1511l-121 45l868 1513zM549 459h-490q16 70 27.5 109t31 86t46 80t67 71.5t99.5 81.5q100 72 129.5 105t42.5 98l12 61q6 30 6 43q0 53 -63 53q-36 0 -54.5 -17.5t-27.5 -62.5l-23 -106h-159l24 108q25 106 83.5 155.5t160.5 49.5q106 0 165.5 -44.5
t59.5 -119.5q0 -27 -6 -57l-12 -68q-13 -75 -43.5 -124t-89.5 -97l-144 -119q-95 -77 -115 -147h302zM879 285h155l-10 -56q-6 -30 -6 -53q0 -61 67 -61q37 0 58 22.5t31 73.5l22 106q4 24 4 33q0 80 -100 80h-35l27 107h32q65 0 96.5 21.5t49.5 90.5l14 56q4 20 4 30
q0 58 -65 58q-37 0 -56 -19.5t-32 -73.5l-17 -65h-155l14 63q27 119 85.5 170.5t176.5 51.5q104 0 158.5 -40.5t54.5 -117.5q0 -15 -8 -55l-12 -60q-18 -86 -57.5 -118.5t-112.5 -39.5q102 -23 102 -127q0 -30 -10 -75l-21 -94q-22 -106 -82 -155.5t-176 -49.5
q-106 0 -163.5 42t-57.5 120q0 47 12 90z" />
    <glyph glyph-name="oneeighth" unicode="&#x215b;" horiz-adv-x="1449" 
d="M1212 1417l-864 -1511l-121 45l869 1513zM600 1362l-207 -903h-166l156 684q-61 -43 -147 -49l30 129q64 18 109.5 47t99.5 92h125zM1407 711l-16 -78q-15 -71 -41 -105.5t-82 -52.5q63 -32 63 -102q0 -62 -45 -219q-25 -88 -87 -127t-161 -39q-107 0 -169 42.5
t-62 119.5q0 34 10 79l23 99q18 78 48.5 112t84.5 47q-62 35 -62 101q0 25 7 53l22 100q22 97 87 139t173 42q94 0 153.5 -40t59.5 -110q0 -31 -6 -61zM1016 344l-35 -139q-4 -14 -4 -39q0 -24 17.5 -37.5t45.5 -13.5q47 0 64.5 18t28.5 66q38 151 38 174q0 51 -65 51
q-70 0 -90 -80zM1106 725l-23 -96q-4 -20 -4 -37q0 -53 60 -53q38 0 55.5 18.5t30.5 75.5q20 92 20 112q0 54 -55 54q-35 0 -54.5 -15.5t-29.5 -58.5z" />
    <glyph glyph-name="threeeighths" unicode="&#x215c;" horiz-adv-x="1449" 
d="M1266 1417l-865 -1511l-120 45l868 1513zM117 743h155l-10 -55q-6 -30 -6 -53q0 -62 68 -62q36 0 56.5 23t31.5 74l22 106q4 24 4 33q0 80 -100 80h-35l27 106h32q65 0 96.5 22t49.5 91l14 55q4 20 4 31q0 57 -65 57q-37 0 -56 -19.5t-32 -72.5l-17 -65h-155l14 63
q27 119 85.5 170t176.5 51q104 0 158.5 -40t54.5 -117q0 -16 -8 -56l-12 -59q-18 -86 -57.5 -118.5t-112.5 -39.5q102 -23 102 -127q0 -31 -10 -76l-21 -94q-22 -106 -82 -155.5t-176 -49.5q-106 0 -163.5 42t-57.5 120q0 46 12 90zM1452 711l-16 -78q-15 -71 -41 -105.5
t-82 -52.5q63 -32 63 -102q0 -62 -45 -219q-25 -88 -87 -127t-161 -39q-107 0 -169 42.5t-62 119.5q0 34 10 79l23 99q18 78 48.5 112t84.5 47q-62 35 -62 101q0 25 7 53l22 100q22 97 87 139t173 42q94 0 153.5 -40t59.5 -110q0 -31 -6 -61zM1061 344l-35 -139
q-4 -14 -4 -39q0 -24 17.5 -37.5t45.5 -13.5q47 0 64.5 18t28.5 66q39 155 39 174q0 51 -66 51q-70 0 -90 -80zM1151 725l-23 -96q-4 -20 -4 -37q0 -53 60 -53q38 0 55.5 18.5t30.5 75.5q20 92 20 112q0 54 -55 54q-35 0 -54.5 -15.5t-29.5 -58.5z" />
    <glyph glyph-name="fiveeighths" unicode="&#x215d;" horiz-adv-x="1449" 
d="M1270 1417l-864 -1511l-121 45l868 1513zM702 1364l-32 -135h-285l-59 -232q49 72 157 72q71 0 105.5 -31t34.5 -100q0 -30 -25 -158l-27 -141q-15 -86 -78 -139.5t-184 -53.5q-221 0 -221 162q0 55 25 140h166q-27 -88 -27 -134q0 -47 57 -47q44 0 65.5 24t39.5 107
l24 115q1 8 4 21t5 22.5t2 17.5q0 48 -62 48q-30 0 -47 -13t-27 -45h-168l121 500h436zM1454 711l-16 -78q-15 -71 -41 -105.5t-82 -52.5q63 -32 63 -102q0 -62 -45 -219q-25 -88 -87 -127t-161 -39q-107 0 -169 42.5t-62 119.5q0 34 10 79l23 99q18 78 48.5 112t84.5 47
q-62 35 -62 101q0 25 7 53l22 100q22 97 87 139t173 42q94 0 153.5 -40t59.5 -110q0 -31 -6 -61zM1063 344l-35 -139q-4 -14 -4 -39q0 -24 17.5 -37.5t45.5 -13.5q47 0 64.5 18t28.5 66q39 155 39 174q0 51 -66 51q-70 0 -90 -80zM1153 725l-23 -96q-4 -20 -4 -37
q0 -53 60 -53q38 0 55.5 18.5t30.5 75.5q20 92 20 112q0 54 -55 54q-35 0 -54.5 -15.5t-29.5 -58.5z" />
    <glyph glyph-name="seveneighths" unicode="&#x215e;" horiz-adv-x="1449" 
d="M1198 1417l-864 -1511l-121 45l868 1513zM274 1362h539l-37 -139q-152 -161 -265 -358t-167 -406h-194q179 468 458 768h-217l-26 -107h-150zM1415 711l-16 -78q-15 -71 -41 -105.5t-82 -52.5q63 -32 63 -102q0 -62 -45 -219q-25 -88 -86.5 -127t-160.5 -39
q-107 0 -169.5 42.5t-62.5 119.5q0 34 10 79l23 99q18 78 48.5 112t84.5 47q-61 34 -61 101q0 29 6 53l22 100q22 97 87 139t173 42q94 0 153.5 -40t59.5 -110q0 -31 -6 -61zM1024 344l-35 -139q-4 -14 -4 -39q0 -24 17.5 -37.5t46.5 -13.5q47 0 64 18t28 66q39 155 39 174
q0 51 -66 51q-70 0 -90 -80zM1114 725l-22 -96q-5 -25 -5 -37q0 -53 60 -53q38 0 55.5 18.5t30.5 75.5q20 92 20 112q0 54 -55 54q-35 0 -54.5 -15.5t-29.5 -58.5z" />
    <glyph glyph-name="partialdiff" unicode="&#x2202;" horiz-adv-x="976" 
d="M428 1243l12 197q87 22 189 22q181 0 266.5 -104.5t85.5 -325.5q0 -140 -32.5 -315t-86.5 -322q-80 -218 -187 -319t-261 -101q-158 0 -250 98.5t-92 268.5q0 148 57.5 275.5t155.5 202.5t211 75q70 0 121.5 -26t97.5 -85q26 133 26 246q0 123 -40.5 178.5t-131.5 55.5
q-47 0 -141 -21zM662 584q-29 55 -71 85.5t-89 30.5q-82 0 -140.5 -103.5t-58.5 -248.5q0 -86 33 -135t92 -49q85 0 139.5 104t94.5 316z" />
    <glyph glyph-name="Delta" unicode="&#x2206;" horiz-adv-x="1036" 
d="M934 0h-1034l718 1446h269zM678 1100l-387 -881h377z" />
    <glyph glyph-name="product" unicode="&#x220f;" horiz-adv-x="1132" 
d="M1229 1446l-389 -1696h-260l342 1479h-340l-342 -1479h-258l391 1696h856z" />
    <glyph glyph-name="summation" unicode="&#x2211;" horiz-adv-x="968" 
d="M1122 1446l-53 -219h-528l272 -623l-534 -635h512l-54 -219h-803l50 219l540 656l-250 598l52 223h796z" />
    <glyph glyph-name="minus" unicode="&#x2212;" horiz-adv-x="1142" 
d="M1069 717l-47 -211h-872l47 211h872z" />
    <glyph glyph-name="uni2215" unicode="&#x2215;" horiz-adv-x="256" 
d="M690 1419l-864 -1511l-121 45l868 1513z" />
    <glyph glyph-name="uni2219" unicode="&#x2219;" horiz-adv-x="382" 
d="M385 729l-59 -264h-240l59 264h240z" />
    <glyph glyph-name="radical" unicode="&#x221a;" horiz-adv-x="1144" 
d="M1298 1446l-718 -1825h-258l-99 547l-131 -47l-49 205l363 125l79 -488l566 1483h247z" />
    <glyph glyph-name="infinity" unicode="&#x221e;" horiz-adv-x="1142" 
d="M575 416l-14 -19q-81 -91 -139.5 -129.5t-130.5 -38.5q-114 0 -177 79t-63 220q0 188 99 322.5t239 134.5q81 0 136.5 -42.5t111.5 -147.5q72 101 141 145.5t152 44.5q107 0 171 -81t64 -216q0 -190 -95 -322.5t-234 -132.5q-88 0 -147 41t-114 142zM729 608
q38 -95 64 -130.5t57 -35.5q44 0 75 59.5t31 141.5q0 129 -65 129q-32 0 -67 -35t-95 -129zM487 606q-40 95 -66.5 130.5t-58.5 35.5q-44 0 -74 -59t-30 -142q0 -60 18 -94.5t50 -34.5q28 0 61 34.5t100 129.5z" />
    <glyph glyph-name="integral" unicode="&#x222b;" horiz-adv-x="630" 
d="M834 1438l-54 -224q-47 41 -84 41q-38 0 -60 -33t-42 -120l-248 -1084q-8 -34 -12.5 -53t-15.5 -55t-20 -57.5t-25.5 -53.5t-34 -51.5t-42.5 -42.5t-53.5 -35.5t-65.5 -21t-79 -8.5q-72 0 -141 28l53 228q44 -39 82 -39q43 0 66.5 32.5t43.5 120.5l250 1120
q17 77 39.5 132.5t61.5 105t100 75t145 25.5q64 0 136 -30z" />
    <glyph glyph-name="approxequal" unicode="&#x2248;" horiz-adv-x="1144" 
d="M1053 981l63 -195q-143 -129 -303 -129q-38 0 -69.5 10t-84.5 40l-53 30q-68 39 -123 39q-45 0 -93 -24t-120 -86l-65 190q152 135 303 135q69 0 137 -41l78 -43q63 -35 108 -35q97 0 222 109zM969 600l63 -194q-145 -130 -303 -130q-38 0 -69.5 10t-84.5 40l-53 30
q-68 39 -123 39q-45 0 -93 -24t-120 -86l-65 190q152 135 303 135q69 0 137 -41l78 -43q61 -34 109 -34q97 0 221 108z" />
    <glyph glyph-name="notequal" unicode="&#x2260;" horiz-adv-x="1114" 
d="M1069 926l-47 -201h-250l-125 -190h330l-47 -203h-412l-176 -273h-215l178 273h-170l45 203h252l125 190h-332l47 201h412l164 252h215l-164 -252h170z" />
    <glyph glyph-name="lessequal" unicode="&#x2264;" horiz-adv-x="1144" 
d="M1118 1286l-59 -256l-570 -264l455 -264l-55 -230l-647 396l51 219zM874 207l-47 -207h-741l47 207h741z" />
    <glyph glyph-name="greaterequal" unicode="&#x2265;" horiz-adv-x="1144" 
d="M1079 889l-51 -217l-825 -400l59 254l569 267l-454 262l55 229zM922 207l-45 -207h-744l47 207h742z" />
    <glyph glyph-name="dotmath" unicode="&#x22c5;" horiz-adv-x="382" 
d="M381 1040l-59 -264h-240l59 264h240z" />
    <glyph glyph-name="lozenge" unicode="&#x25ca;" horiz-adv-x="1144" 
d="M1065 725l-481 -725h-209l-160 727l479 719h211zM827 739l-84 455l-288 -479l80 -465z" />
    <glyph glyph-name="uniF6C1" unicode="&#xf6c1;" horiz-adv-x="917" 
d="M967 1022h-267l23 100q8 33 8 66q0 86 -102 86q-44 0 -76.5 -26t-47.5 -65t-21.5 -70.5t-6.5 -55.5q0 -76 49 -117l168 -141q98 -83 128 -141t30 -148q0 -114 -59 -283q-46 -132 -144.5 -195t-259.5 -63h-20l-17 -73q178 -9 178 -127q0 -75 -60.5 -115.5t-174.5 -40.5
q-120 0 -215 35l18 59q61 -10 97 -10q94 0 94 59q0 42 -53 58l43 163q-126 20 -193.5 86t-67.5 170q0 53 23 150l31 127h264l-29 -117q-20 -84 -20 -129q0 -41 32.5 -65.5t86.5 -24.5q80 0 108 51q29 50 46.5 125.5t17.5 116.5q0 85 -84 151l-144 115q-72 59 -106.5 118.5
t-34.5 143.5q0 192 102 334q104 148 338 148q175 0 266 -60.5t91 -177.5q0 -37 -13 -94z" />
    <glyph glyph-name="uniF6C2" unicode="&#xf6c2;" horiz-adv-x="768" 
d="M758 711h-211l16 73q6 27 6 47q0 68 -77 68q-47 0 -75 -34.5t-28 -94.5q0 -45 45 -82l119 -98q66 -56 95.5 -112.5t29.5 -131.5q0 -171 -93.5 -265.5t-265.5 -100.5l-18 -84q178 -9 178 -127q0 -75 -60.5 -115.5t-174.5 -40.5q-120 0 -215 35l18 59q61 -10 96 -10
q95 0 95 59q0 22 -12.5 35.5t-41.5 22.5l43 170q-211 24 -211 200q0 42 23 146l8 37h225l-12 -50q-14 -55 -14 -92q0 -32 21.5 -51.5t58.5 -19.5q54 0 87 45.5t33 117.5q0 36 -18 62.5t-76 75.5l-92 77q-108 89 -108 218q0 146 97 230.5t263 84.5q129 0 201.5 -51.5
t72.5 -145.5q0 -30 -10 -75z" />
    <glyph glyph-name="acute.cap" horiz-adv-x="425" 
d="M455 1837l-295 -274h-189l166 274h318z" />
    <glyph glyph-name="breve.cap" horiz-adv-x="425" 
d="M414 1864l116 -60q-58 -118 -146 -181.5t-200 -63.5q-122 0 -197.5 73t-90.5 195l135 33q12 -49 58 -84t118 -35q140 0 207 123z" />
    <glyph glyph-name="caron.cap" horiz-adv-x="425" 
d="M522 1831l-225 -272h-264l-127 272h203l69 -150l119 150h225z" />
    <glyph glyph-name="cedilla.cap" horiz-adv-x="425" 
d="M197 18h92l-29 -122q178 -9 178 -127q0 -75 -60.5 -115.5t-174.5 -40.5q-120 0 -215 35l18 59q61 -10 96 -10q95 0 95 59q0 22 -12.5 35.5t-41.5 22.5z" />
    <glyph glyph-name="circumflex.cap" horiz-adv-x="425" 
d="M522 1561h-203l-69 149l-119 -149h-225l225 272h264z" />
    <glyph glyph-name="commaaccent" horiz-adv-x="425" 
d="M174 -367h-74l66 115h-68l41 180h187l-41 -180z" />
    <glyph glyph-name="dieresis.cap" horiz-adv-x="425" 
d="M567 1808l-57 -247h-238l58 247h237zM158 1808l-58 -247h-239l57 247h240z" />
    <glyph glyph-name="dotaccent.cap" horiz-adv-x="425" 
d="M362 1808l-57 -247h-242l58 247h241z" />
    <glyph glyph-name="grave.cap" horiz-adv-x="425" 
d="M418 1561h-178l-234 272h301z" />
    <glyph glyph-name="hungarumlaut.cap" horiz-adv-x="425" 
d="M602 1837l-295 -274h-149l182 274h262zM270 1837l-295 -274h-149l182 274h262z" />
    <glyph glyph-name="macron.cap" horiz-adv-x="425" 
d="M524 1743l-39 -166h-581l37 166h583z" />
    <glyph glyph-name="ring.cap" horiz-adv-x="425" 
d="M395 1698q0 -75 -53.5 -128.5t-128.5 -53.5t-128.5 54t-53.5 130q0 74 53.5 128t126.5 54q77 0 130.5 -54t53.5 -130zM297 1698q0 37 -24.5 63.5t-59.5 26.5q-37 0 -61.5 -25.5t-24.5 -62.5t25.5 -62.5t60.5 -25.5q34 0 59 25.5t25 60.5z" />
    <glyph glyph-name="tilde.cap" horiz-adv-x="425" 
d="M440 1815h125q-33 -138 -81.5 -199.5t-127.5 -61.5q-51 0 -127 39l-61 31q-49 25 -76 25q-65 0 -92 -86h-137q33 130 87 192t142 62q45 0 117 -31l88 -41q40 -19 61 -19q28 0 45 18.5t37 70.5z" />
    <glyph glyph-name="caron.alt" horiz-adv-x="425" 
d="M170 1108h-82l72 127h-76l49 211h207l-49 -211z" />
    <glyph glyph-name="zero.tab" 
d="M881 987l-144 -618q-51 -220 -138.5 -304.5t-260.5 -84.5q-148 0 -230.5 62.5t-82.5 172.5q0 52 18 137l164 707q73 319 385 319q147 0 227 -65t80 -185q0 -64 -18 -141zM487 303l168 725q15 66 15 80q0 43 -26 66.5t-75 23.5q-54 0 -79.5 -30t-45.5 -115l-168 -721
q-14 -59 -14 -94t25.5 -56.5t68.5 -21.5q57 0 85 32t46 111z" />
    <glyph glyph-name="one.tab" 
d="M772 1362l-315 -1362h-240l240 1038l-21 -12q-78 -46 -203 -65l48 188q105 27 171 68.5t160 144.5h160z" />
    <glyph glyph-name="two.tab" 
d="M707 205l-48 -205h-716q45 199 111.5 319t201.5 234q60 51 126 102.5t99 77t66 56.5t49.5 61.5t26.5 73.5l28 120q11 42 11 68q0 38 -26.5 61t-70.5 23q-51 0 -80.5 -30t-44.5 -99l-37 -162h-223l39 166q38 164 123.5 237.5t237.5 73.5q149 0 234 -64t85 -177
q0 -51 -10 -90l-35 -146q-18 -75 -46.5 -127t-82.5 -102q-58 -55 -287 -240q-90 -71 -123.5 -114t-60.5 -117h453z" />
    <glyph glyph-name="three.tab" 
d="M178 954l31 131q26 105 49 148q74 135 284 146q19 1 40 1q149 0 227 -57.5t78 -167.5q0 -38 -13 -92l-20 -90q-14 -63 -30 -102t-44 -69.5t-70 -45.5t-106 -21q148 -35 148 -172q0 -60 -17 -133l-30 -139q-36 -168 -120 -238.5t-266 -70.5q-319 0 -319 225q0 37 16 106
l27 115h236l-25 -109q-10 -52 -10 -71q0 -84 96 -84q59 0 84.5 28.5t46.5 114.5l29 117q16 63 16 115q0 58 -33 83t-110 25h-49l36 160h41q89 0 140.5 32.5t74.5 131.5l23 96q6 27 6 51q0 80 -90 80q-51 0 -79 -29.5t-48 -109.5l-25 -105h-225z" />
    <glyph glyph-name="four.tab" 
d="M889 1368l-211 -919h88l-43 -191h-90l-60 -258h-219l60 258h-408l43 191l557 919h283zM639 1149l-389 -700h209z" />
    <glyph glyph-name="five.tab" 
d="M934 1362l-47 -205h-443l-69 -278q88 73 207 73q103 0 162 -52.5t59 -143.5q0 -53 -23 -150l-78 -327q-37 -160 -117.5 -228.5t-258.5 -68.5q-324 0 -324 215q0 40 10 92l31 135h236l-25 -102q-10 -45 -10 -74q0 -39 21 -59.5t73 -20.5q62 0 90 36.5t53 147.5l54 244
q16 76 16 90q0 40 -24.5 62t-67.5 22q-106 0 -154 -137h-188l182 729h635z" />
    <glyph glyph-name="six.tab" 
d="M877 1004h-226l19 73q4 14 4 43q0 37 -25 58.5t-69 21.5q-28 0 -48.5 -7.5t-33.5 -18.5t-24 -34.5t-18 -46t-16 -61.5l-53 -233q89 86 209 86q97 0 153 -53.5t56 -145.5q0 -38 -27 -158l-47 -211q-22 -99 -55.5 -164.5t-82.5 -101.5t-105.5 -50.5t-133.5 -14.5
q-154 0 -238.5 63t-84.5 180q0 38 10 86l176 760q25 104 55 154q90 152 316 153q315 0 315 -225q0 -42 -10 -84zM496 309l51 232q10 41 10 63q0 38 -25 60t-69 22q-56 0 -87 -31t-48 -104l-52 -223q-10 -52 -10 -74q0 -41 25.5 -62.5t73.5 -21.5q55 0 84.5 31t46.5 108z" />
    <glyph glyph-name="seven.tab" 
d="M995 1362l-47 -203q-75 -88 -174.5 -237.5t-175.5 -290.5q-86 -159 -162 -355q-40 -102 -84 -276h-256q64 243 210.5 523.5t332.5 518.5l92 119h-317l-37 -160h-199l82 361h735z" />
    <glyph glyph-name="eight.tab" 
d="M879 1065l-25 -115q-22 -103 -65.5 -155t-129.5 -80q60 -28 86.5 -64.5t26.5 -93.5q0 -36 -16 -108l-31 -136q-41 -181 -129 -256t-262 -75q-152 0 -231.5 58.5t-79.5 170.5q0 40 16 115l37 170q25 117 70.5 165.5t140.5 71.5q-97 51 -97 152q0 39 9 80l34 147
q32 137 119.5 202.5t237.5 65.5q145 0 222 -58t77 -167q0 -38 -10 -90zM629 938l28 135q7 28 7 43q0 38 -23.5 59t-65.5 21q-53 0 -78.5 -24t-39.5 -85l-33 -141q-8 -33 -8 -55q0 -82 92 -82q51 0 78 25t43 104zM492 297l45 209q8 46 8 49q0 84 -101 84q-53 0 -83.5 -28.5
t-43.5 -92.5l-47 -211q-8 -40 -8 -57q0 -37 26 -57.5t70 -20.5q56 0 88.5 30t45.5 95z" />
    <glyph glyph-name="nine.tab" 
d="M59 373h226l-17 -80q-6 -24 -6 -45q0 -37 25 -58.5t69 -21.5q26 0 44 5t37 21.5t34 51.5t27 90l51 242q-80 -86 -195 -86q-106 0 -162.5 51.5t-56.5 148.5q0 56 23 156l49 201q25 101 44 146.5t52 84.5q91 104 279 104q155 0 239 -64t84 -181q0 -39 -10 -84l-188 -811
q-59 -258 -361 -258q-313 0 -313 225q0 36 10 84zM608 825l51 215q11 53 11 74q0 84 -99 84q-54 0 -82 -30t-47 -107l-53 -225q-10 -42 -10 -64q0 -38 25 -60t69 -22q52 0 84 28t51 107z" />
    <glyph glyph-name="i.dot" horiz-adv-x="425" 
d="M569 1446l-57 -246h-246l58 246h245zM475 1040l-239 -1040h-246l239 1040h246z" />
    <glyph glyph-name="zero.numerator" horiz-adv-x="598" 
d="M111 702l110 463q28 115 94 165t187 50q99 0 153 -44t54 -124q0 -35 -13 -94l-98 -411q-36 -148 -95 -204.5t-186 -56.5q-102 0 -161.5 41.5t-59.5 110.5q0 42 15 104zM389 1151l-115 -469q-10 -44 -10 -64q0 -24 17 -37.5t43 -13.5q43 0 63 22t33 75l117 481
q10 45 10 61q0 54 -64 54q-40 0 -59.5 -23t-34.5 -86z" />
    <glyph glyph-name="one.numerator" horiz-adv-x="598" 
d="M629 1362l-207 -903h-166l156 684q-61 -42 -148 -49l31 129q64 18 109.5 47t99.5 92h125z" />
    <glyph glyph-name="two.numerator" horiz-adv-x="598" 
d="M555 459h-489q17 71 28 109.5t30.5 85.5t45.5 80t66.5 71.5t99.5 81.5q100 72 129.5 105t42.5 98l12 61q6 30 6 43q0 53 -63 53q-36 0 -54.5 -17.5t-27.5 -62.5l-23 -106h-159l24 108q25 106 83.5 155.5t160.5 49.5q106 0 165.5 -44.5t59.5 -119.5q0 -27 -6 -57l-12 -68
q-13 -75 -43.5 -124t-89.5 -97l-144 -119q-94 -76 -114 -147h301z" />
    <glyph glyph-name="three.numerator" horiz-adv-x="598" 
d="M123 743h156l-11 -55q-6 -30 -6 -53q0 -62 68 -62q36 0 56.5 23t31.5 74l22 106q4 24 4 33q0 80 -100 80h-35l27 106h33q65 0 96 22t49 91l14 55q4 20 4 31q0 57 -65 57q-37 0 -56 -19.5t-32 -72.5l-17 -65h-155l14 63q27 119 85.5 170t176.5 51q104 0 158.5 -40
t54.5 -117q0 -16 -8 -56l-12 -59q-18 -86 -57.5 -118.5t-112.5 -39.5q102 -23 102 -127q0 -31 -10 -76l-20 -94q-22 -105 -82.5 -155t-176.5 -50q-106 0 -163.5 42t-57.5 120q0 43 13 90z" />
    <glyph glyph-name="four.numerator" horiz-adv-x="598" 
d="M698 1362l-133 -584h70l-35 -141h-68l-40 -178h-156l41 178h-291l33 133l381 592h198zM520 1217l-258 -439h148z" />
    <glyph glyph-name="five.numerator" horiz-adv-x="598" 
d="M731 1364l-33 -135h-284l-60 -232q25 36 67.5 54t90.5 18q71 0 105 -31t34 -100q0 -35 -24 -158l-27 -141q-15 -86 -78 -139.5t-184 -53.5q-221 0 -221 162q0 59 24 140h166q-26 -85 -26 -134q0 -47 57 -47q44 0 65 24t39 107l25 115q10 58 10 61q0 48 -61 48
q-30 0 -47 -13t-27 -45h-168l121 500h436z" />
    <glyph glyph-name="six.numerator" horiz-adv-x="598" 
d="M713 1126h-158q14 54 14 78q0 56 -65 56q-38 0 -61.5 -23t-39.5 -90l-34 -143q60 57 151 57q64 0 99.5 -35.5t35.5 -97.5q0 -36 -16 -107l-33 -137q-29 -122 -91.5 -180t-180.5 -58q-108 0 -162.5 41.5t-54.5 120.5q0 31 14 94l100 426q7 31 23 84q21 85 88 126.5
t166 41.5q110 0 166.5 -34t56.5 -115q0 -49 -18 -105zM326 838l-35 -154q-6 -30 -6 -55q0 -56 67 -56q37 0 57 23.5t33 75.5l39 159q8 31 8 50q0 53 -63 53q-39 0 -64 -21.5t-36 -74.5z" />
    <glyph glyph-name="seven.numerator" horiz-adv-x="598" 
d="M248 1362h538l-36 -139q-152 -161 -265.5 -358.5t-167.5 -405.5h-194q178 466 459 768h-217l-27 -107h-150z" />
    <glyph glyph-name="eight.numerator" horiz-adv-x="598" 
d="M700 1169l-16 -77q-15 -71 -41 -105.5t-82 -52.5q64 -33 64 -103q0 -62 -45 -219q-25 -88 -87 -127t-161 -39q-107 0 -169.5 42.5t-62.5 119.5q0 30 11 80l22 98q18 78 48.5 112.5t84.5 47.5q-61 34 -61 101q0 29 6 53l22 100q22 97 87.5 138.5t173.5 41.5
q94 0 153.5 -39.5t59.5 -109.5q0 -27 -7 -62zM309 803l-35 -139q-4 -14 -4 -39q0 -24 18 -38t46 -14q47 0 64 18t28 66q39 155 39 174q0 52 -66 52q-70 0 -90 -80zM399 1184l-22 -97q-4 -20 -4 -36q0 -54 59 -54q38 0 55.5 19t30.5 76q21 97 21 112q0 53 -56 53
q-36 0 -55 -15.5t-29 -57.5z" />
    <glyph glyph-name="nine.numerator" horiz-adv-x="598" 
d="M113 700h157q-14 -54 -14 -77q0 -56 66 -56q38 0 61 23t39 90l35 143q-60 -57 -152 -57q-64 0 -99.5 35.5t-35.5 97.5q0 36 16 107l33 137q29 121 92 179t181 58q217 0 217 -161q0 -27 -15 -95l-100 -426q-17 -73 -33.5 -115.5t-46.5 -70.5q-71 -66 -197 -66
q-110 0 -166.5 34.5t-56.5 115.5q0 45 19 104zM500 995l35 154q6 30 6 55q0 56 -68 56q-37 0 -57 -23.5t-33 -75.5l-39 -160q-8 -31 -8 -49q0 -53 63 -53q39 0 64.5 21.5t36.5 74.5z" />
    <glyph glyph-name="period.numerator" horiz-adv-x="260" 
d="M256 641l-39 -182h-162l41 182h160z" />
    <glyph glyph-name="comma.numerator" horiz-adv-x="260" 
d="M256 641l-39 -182l-143 -178h-70l119 178h-68l41 182h160z" />
    <glyph glyph-name="hyphen.numerator" horiz-adv-x="403" 
d="M483 950l-34 -143h-334l35 143h333z" />
    <glyph glyph-name="parenleft.numerator" horiz-adv-x="374" 
d="M584 1499l-31 -137q-86 -37 -122 -84t-62 -158l-101 -432q-14 -58 -14 -108q0 -24 3 -41t20.5 -53t52.5 -83l-29 -131q-114 79 -164.5 146.5t-50.5 138.5q0 57 14 123l117 500q34 141 113.5 206t253.5 113z" />
    <glyph glyph-name="parenright.numerator" horiz-adv-x="374" 
d="M-8 272l31 138q86 37 122 84t62 157l100 432q15 62 15 109q0 24 -3 40.5t-20.5 52.5t-52.5 83l28 131q114 -79 164.5 -146.5t50.5 -138.5q0 -56 -14 -122l-117 -500q-34 -142 -113.5 -207t-252.5 -113z" />
    <glyph glyph-name="dollar.numerator" horiz-adv-x="534" 
d="M623 1077h-148q19 78 19 119q0 45 -58 45q-82 0 -82 -113q0 -35 23 -65l127 -168q55 -76 55 -158q0 -50 -11 -95.5t-37 -90t-77.5 -71.5t-122.5 -27l-26 -121h-86l26 121q-81 11 -111 47.5t-30 103.5q0 59 29 156h157l-12 -45q-12 -50 -12 -78q0 -55 57 -55q39 0 64 28
q10 13 20 49.5t10 61.5q0 48 -35 94l-96 127q-45 58 -57 89.5t-12 76.5q0 35 5.5 67.5t22 68t42 61t69 42.5t100.5 17l25 113h86l-25 -117q65 -9 96 -42.5t31 -96.5q0 -42 -26 -144z" />
    </font>
</defs>
</svg>
